<?xml version="1.0" standalone="no"?>
<!DOCTYPE svg PUBLIC "-//W3C//DTD SVG 1.1//EN" "http://www.w3.org/Graphics/SVG/1.1/DTD/svg11.dtd" >
<svg xmlns="http://www.w3.org/2000/svg">
<metadata>Generated by IcoMoon</metadata>
<defs>
<font id="icomoon" horiz-adv-x="1024">
<font-face units-per-em="1024" ascent="960" descent="-64" />
<missing-glyph horiz-adv-x="1024" />
<glyph unicode="&#x20;" horiz-adv-x="512" d="" />
<glyph unicode="&#xe900;" d="M491.994-11.473l-163.181 245.248c-9.088 13.636-13.938 29.653-13.938 46.042s4.849 32.41 13.938 46.042l157.929 238.568c2.121 3.356 3.247 7.244 3.247 11.212s-1.126 7.857-3.247 11.213l-115.941 169.382c-10.026 15.214-13.645 33.769-10.071 51.636s14.051 33.602 29.157 43.79l47.712 31.968c15.215 10.025 33.771 13.645 51.635 10.071 17.869-3.573 33.604-14.051 43.793-29.156l166.042-246.677c9.088-13.636 13.935-29.656 13.935-46.043s-4.847-32.407-13.935-46.043l-157.931-238.567c-2.121-3.354-3.247-7.241-3.247-11.209 0-3.972 1.126-7.859 3.247-11.213l115.942-166.997c10.027-15.215 13.645-33.771 10.069-51.635-3.571-17.869-14.050-33.604-29.154-43.793l-47.714-31.966c-7.573-5.461-16.179-9.335-25.289-11.383s-18.543-2.231-27.729-0.538c-9.182 1.694-17.929 5.231-25.707 10.394-7.782 5.167-14.438 11.853-19.563 19.657z" />
<glyph unicode="&#xe901;" d="M535.881 865.5c-10.189 15.106-25.924 25.583-43.793 29.157-17.865 3.573-36.42-0.046-51.635-10.071l-47.712-31.968c-15.106-10.188-25.583-25.923-29.157-43.79s0.046-36.422 10.071-51.636l114.034-170.813c2.121-3.356 3.247-7.244 3.247-11.212s-1.126-7.857-3.247-11.213l-91.609-136.936h235.703l67.277 101.151c9.088 13.636 13.935 29.656 13.935 46.043s-4.847 32.407-13.935 46.043l-163.179 245.245z" />
<glyph unicode="&#xe902;" d="M780.8 695.467v-268.8c0-71.292-28.318-139.661-78.729-190.071s-118.78-78.729-190.071-78.729c-71.292 0-139.66 28.318-190.070 78.729s-78.73 118.78-78.73 190.071v268.8h537.6zM915.2 874.667h-806.4c-11.882 0-23.277-4.72-31.678-13.122s-13.122-19.796-13.122-31.678v-403.2c0-118.818 47.2-232.768 131.216-316.783 41.6-41.6 90.988-74.603 145.341-97.114 54.354-22.515 112.609-34.103 171.442-34.103 118.818 0 232.768 47.198 316.783 131.217 84.019 84.015 131.217 197.965 131.217 316.783v403.2c0 11.882-4.719 23.277-13.12 31.678-8.405 8.402-19.797 13.122-31.68 13.122z" />
<glyph unicode="&#xe903;" d="M915.2 874.667h-403.2v-179.2h268.8v-268.8c0-71.292-28.318-139.661-78.729-190.071s-118.78-78.729-190.071-78.729v-179.2c118.818 0 232.768 47.198 316.783 131.217 84.019 84.015 131.217 197.965 131.217 316.783v403.2c0 11.882-4.719 23.277-13.12 31.678-8.405 8.402-19.797 13.122-31.68 13.122z" />
<glyph unicode="&#xe904;" d="M988.16 461.483l-441.344 441.345c-4.557 4.596-9.98 8.244-15.957 10.734-5.973 2.49-12.386 3.771-18.859 3.771s-12.881-1.282-18.859-3.771c-5.978-2.49-11.401-6.138-15.957-10.734l-441.345-441.345c-4.596-4.557-8.244-9.98-10.734-15.957s-3.771-12.386-3.771-18.859c0-6.473 1.282-12.885 3.771-18.859 2.49-5.978 6.138-11.401 10.734-15.957l441.345-441.344c4.557-4.599 9.98-8.247 15.957-10.735 5.978-2.492 12.386-3.772 18.859-3.772s12.885 1.28 18.859 3.772c5.978 2.487 11.401 6.135 15.957 10.735l441.344 441.344c4.599 4.557 8.247 9.98 10.735 15.957 2.492 5.973 3.772 12.386 3.772 18.859s-1.28 12.881-3.772 18.859c-2.487 5.978-6.135 11.401-10.735 15.957zM512 660.089l135.347-135.345h-270.693l135.345 135.345zM512 193.246l-135.345 135.343h270.693l-135.347-135.343z" />
<glyph unicode="&#xe905;" d="M647.347 524.735h-135.347v-196.155h135.347l-135.347-135.343v-256.96c6.455-0.038 12.851 1.199 18.825 3.639 5.978 2.441 11.409 6.037 15.991 10.581l441.344 441.344c4.599 4.557 8.247 9.98 10.735 15.957 2.492 5.978 3.772 12.386 3.772 18.859s-1.28 12.885-3.772 18.859c-2.487 5.978-6.135 11.401-10.735 15.957l-441.344 441.346c-4.582 4.545-10.014 8.141-15.991 10.581-5.973 2.44-12.369 3.677-18.825 3.64v-256.96l135.347-135.345z" />
<glyph unicode="&#xe906;" d="M512 660.091l233.421-233.42-233.421-233.425-233.422 233.425 233.422 233.42zM512 917.052c-6.455 0.037-12.851-1.2-18.825-3.64-5.978-2.44-11.409-6.036-15.991-10.581l-441.345-441.343c-4.596-4.561-8.244-9.984-10.734-15.957-2.49-5.978-3.771-12.386-3.771-18.859 0-6.477 1.282-12.885 3.771-18.863 2.49-5.973 6.138-11.396 10.734-15.957l441.345-441.344c4.557-4.595 9.98-8.243 15.957-10.735 5.978-2.487 12.386-3.767 18.859-3.767s12.885 1.28 18.859 3.767c5.978 2.492 11.401 6.14 15.957 10.735l441.344 441.344c4.599 4.561 8.247 9.984 10.735 15.957 2.492 5.978 3.772 12.386 3.772 18.863 0 6.473-1.28 12.881-3.772 18.859-2.487 5.973-6.135 11.396-10.735 15.957l-441.344 441.343c-4.582 4.545-10.014 8.141-15.991 10.581-5.973 2.44-12.369 3.677-18.825 3.64z" />
<glyph unicode="&#xe907;" d="M546.803 902.818c-4.557 4.596-9.98 8.244-15.957 10.734-5.973 2.49-12.386 3.771-18.859 3.771s-12.881-1.282-18.859-3.771c-5.978-2.49-11.401-6.138-15.957-10.734l-441.345-441.343c-4.545-4.582-8.141-10.018-10.581-15.991s-3.677-12.373-3.64-18.825h256.96l233.422 233.42 233.421-233.42h256.96c0.038 6.451-1.199 12.851-3.639 18.825s-6.033 11.409-10.581 15.991l-441.344 441.343z" />
<glyph unicode="&#xe908;" d="M512-42.666c259.204 0 469.333 210.129 469.333 469.333 0 259.206-210.129 469.333-469.333 469.333-259.206 0-469.333-210.128-469.333-469.333s210.128-469.333 469.333-469.333z" />
<glyph unicode="&#xe909;" d="M699.733 285.863v281.6c0 25.921-21.013 46.933-46.933 46.933h-281.599c-25.92 0-46.933-21.012-46.933-46.933v-281.6c0-25.92 21.013-46.933 46.933-46.933h281.599c25.92 0 46.933 21.013 46.933 46.933z" />
<glyph unicode="&#xe90a;" glyph-name="abstract-6" d="M855.467 545.17h-9.323c5.986 15.939 9.143 32.832 9.323 49.892 0 39.697-15.509 77.768-43.115 105.838s-65.045 43.839-104.085 43.839c-29.41-0.081-58.121-9.117-82.432-25.944-27.068 47.237-68.646 84.125-118.345 104.989s-104.759 24.552-156.717 10.493c-51.958-14.059-97.936-45.084-130.862-88.304s-50.978-96.242-51.378-150.912c0.156-16.747 1.798-33.446 4.907-49.892h-4.907c-39.040 0-76.481-15.77-104.086-43.841s-43.114-66.138-43.114-105.835c0-39.697 15.509-77.769 43.114-105.839s65.046-43.84 104.086-43.84h196.267l217.856-221.521c6.217-6.451 14.187-10.871 22.886-12.693s17.737-0.964 25.954 2.462c8.218 3.43 15.245 9.271 20.181 16.785 4.932 7.509 7.552 16.346 7.522 25.378v189.589h196.267c39.040 0 76.48 15.77 104.085 43.84s43.115 66.142 43.115 105.839c0 39.697-15.509 77.764-43.115 105.835s-65.045 43.841-104.085 43.841z" />
<glyph unicode="&#xe90b;" d="M509.641 697.391l234.714-135.356v-270.711l-234.714-135.356-234.713 135.356v270.711l234.713 135.356zM509.641 906.665c-14.135 0.097-28.045-3.546-40.32-10.56l-343.668-200.154c-12.256-7.020-22.441-17.154-29.521-29.376s-10.805-26.097-10.798-40.222v-399.349c-0.007-14.123 3.718-27.998 10.798-40.222 7.080-12.22 17.264-22.357 29.521-29.376l346.071-200.154c12.305-6.938 26.193-10.586 40.32-10.586s28.011 3.648 40.316 10.586l346.069 200.154c12.258 7.019 22.443 17.156 29.521 29.376 7.083 12.224 10.807 26.099 10.799 40.222v399.349c0.009 14.124-3.716 28-10.799 40.222-7.078 12.222-17.263 22.356-29.521 29.376l-348.467 200.154c-12.275 7.013-26.185 10.657-40.32 10.56z" />
<glyph unicode="&#xe90c;" d="M896.026 695.953l-346.069 200.154c-12.339 6.851-26.206 10.483-40.32 10.56v-209.754l234.231-134.876v-270.713l-234.231-134.874v-209.754c14.020 0.085 27.772 3.895 39.838 11.038l346.069 199.676c12.258 7.019 22.443 17.152 29.521 29.376 7.083 12.22 10.807 26.095 10.799 40.222v399.347c0.055 14.077-3.597 27.921-10.59 40.139s-17.084 22.378-29.248 29.459z" />
<glyph unicode="&#xe90d;" d="M992 426.667c0-94.933-28.151-187.738-80.896-266.675-52.74-78.933-127.706-140.459-215.415-176.785-87.71-36.331-184.222-45.837-277.332-27.315s-178.639 64.235-245.768 131.366c-67.129 67.127-112.845 152.657-131.366 245.764-18.521 93.111-9.015 189.624 27.315 277.333s97.853 162.674 176.788 215.417c78.935 52.743 171.738 80.895 266.673 80.895 63.036 0 125.453-12.416 183.689-36.538s111.151-59.479 155.725-104.051c44.57-44.572 79.927-97.487 104.047-155.723 24.124-58.236 36.54-120.652 36.54-183.688zM512 714.667c-56.96 0-112.643-16.891-160.004-48.537s-84.275-76.625-106.073-129.25c-21.798-52.626-27.502-110.533-16.389-166.401 11.113-55.863 38.542-107.183 78.819-147.46s91.594-67.703 147.459-78.818c55.868-11.11 113.775-5.41 166.4 16.388s97.604 58.714 129.25 106.074c31.646 47.36 48.538 103.044 48.538 160.004 0 76.382-30.345 149.636-84.352 203.647-54.012 54.010-127.266 84.353-203.648 84.353z" />
<glyph unicode="&#xe90e;" d="M800 426.667c0-76.382-30.345-149.636-84.352-203.648-54.012-54.007-127.266-84.352-203.648-84.352v-192c127.305 0 249.395 50.573 339.409 140.591 90.018 90.014 140.591 212.105 140.591 339.409s-50.573 249.394-140.591 339.411c-90.014 90.018-212.105 140.589-339.409 140.589v-192c76.382 0 149.636-30.343 203.648-84.353 54.007-54.010 84.352-127.265 84.352-203.647z" />
<glyph unicode="&#xe90f;" d="M749.039 663.704v-474.076h-474.076v474.076h474.076zM891.26 853.334h-758.519c-12.573 0-24.631-4.995-33.522-13.885s-13.885-20.949-13.885-33.522v-758.519c0-12.574 4.995-24.631 13.885-33.523 8.89-8.887 20.949-13.884 33.522-13.884h758.519c12.574 0 24.631 4.996 33.523 13.884 8.887 8.892 13.884 20.949 13.884 33.523v758.519c0 12.573-4.996 24.631-13.884 33.522-8.892 8.891-20.949 13.885-33.523 13.885z" />
<glyph unicode="&#xe910;" d="M891.26 853.334h-379.26v-189.629h237.039v-474.076h-237.039v-189.628h379.26c12.574 0 24.631 4.996 33.523 13.884 8.887 8.892 13.884 20.949 13.884 33.523v758.519c0 12.573-4.996 24.631-13.884 33.522-8.892 8.891-20.949 13.885-33.523 13.885z" />
<glyph unicode="&#xe911;" d="M970.667 375.706v101.926c0 28.143-22.818 50.962-50.961 50.962h-815.409c-28.146 0-50.963-22.819-50.963-50.962v-101.926c0-28.147 22.817-50.965 50.963-50.965h815.409c28.143 0 50.961 22.818 50.961 50.965z" />
<glyph unicode="&#xe912;" d="M562.961 885.334h-101.926c-28.143 0-50.962-22.817-50.962-50.963v-815.409c0-28.143 22.819-50.961 50.962-50.961h101.926c28.147 0 50.965 22.818 50.965 50.961v815.409c0 28.146-22.818 50.963-50.965 50.963z" />
<glyph unicode="&#xe913;" d="M901.803 700.094l-73.694 73.694c-20.352 20.35-53.346 20.35-73.694 0l-589.556-589.553c-20.35-20.352-20.35-53.346 0-73.694l73.694-73.694c20.35-20.352 53.344-20.352 73.694 0l589.555 589.553c20.348 20.35 20.348 53.344 0 73.694z" />
<glyph unicode="&#xe914;" d="M238.573 773.802l-73.694-73.694c-20.35-20.35-20.35-53.344 0-73.694l589.553-589.553c20.352-20.352 53.346-20.352 73.694 0l73.694 73.694c20.352 20.348 20.352 53.342 0 73.694l-589.553 589.554c-20.35 20.35-53.344 20.35-73.694 0z" />
<glyph unicode="&#xe915;" d="M558.912-42.666h-93.867c-12.45 0-24.388 4.945-33.19 13.743-8.8 8.802-13.744 20.74-13.744 33.19v140.8c0 12.446 4.945 24.384 13.744 33.186 8.802 8.802 20.74 13.747 33.19 13.747h93.867c12.446 0 24.384-4.945 33.186-13.747s13.747-20.74 13.747-33.186v-140.8c0-12.45-4.945-24.388-13.747-33.19-8.802-8.798-20.74-13.743-33.186-13.743zM802.965 486.272l121.557 70.398c10.735 6.191 18.586 16.378 21.837 28.335 3.255 11.958 1.647 24.717-4.471 35.494l-46.933 81.664c-3.106 5.339-7.236 10.012-12.151 13.752s-10.517 6.473-16.491 8.043c-5.973 1.57-12.198 1.945-18.317 1.104s-12.011-2.881-17.34-6.004l-121.557-70.4c-10.735-6.191-18.586-16.377-21.841-28.335-3.251-11.958-1.643-24.717 4.476-35.494l46.933-81.662c3.102-5.342 7.232-10.014 12.147-13.756 4.915-3.738 10.522-6.473 16.495-8.043s12.198-1.941 18.317-1.101c6.118 0.841 12.011 2.88 17.34 6.003zM314.857 648.66l-121.557 70.4c-5.329 3.123-11.221 5.163-17.34 6.004s-12.343 0.465-18.317-1.104c-5.973-1.57-11.578-4.303-16.493-8.043s-9.043-8.413-12.148-13.752l-46.933-81.664c-6.119-10.777-7.727-23.536-4.474-35.494s11.104-22.144 21.839-28.335l121.557-70.398c5.329-3.123 11.221-5.163 17.34-6.003s12.343-0.469 18.317 1.101c5.973 1.57 11.578 4.305 16.493 8.043 4.915 3.742 9.044 8.414 12.149 13.756l46.933 81.662c6.119 10.777 7.727 23.536 4.474 35.494s-11.104 22.144-21.839 28.335z" />
<glyph unicode="&#xe916;" d="M558.912 661.334h-93.867c-12.45 0-24.388 4.945-33.19 13.746-8.8 8.802-13.744 20.739-13.744 33.187v140.8c0 12.448 4.945 24.385 13.744 33.187 8.802 8.802 20.74 13.746 33.19 13.746h93.867c12.446 0 24.384-4.945 33.186-13.746s13.747-20.739 13.747-33.187v-140.8c0-12.448-4.945-24.385-13.747-33.187s-20.74-13.746-33.186-13.746zM193.3 134.272l121.557 70.4c10.735 6.191 18.586 16.375 21.839 28.335s1.645 24.717-4.474 35.494l-46.933 81.664c-3.105 5.338-7.234 10.014-12.149 13.751-4.915 3.742-10.52 6.473-16.493 8.043s-12.198 1.946-18.317 1.105c-6.118-0.841-12.011-2.88-17.34-6.003l-121.557-70.4c-10.735-6.191-18.586-16.375-21.839-28.335s-1.645-24.717 4.474-35.494l46.933-81.664c3.105-5.338 7.234-10.014 12.148-13.751 4.915-3.742 10.52-6.473 16.493-8.043s12.198-1.946 18.317-1.105c6.119 0.841 12.011 2.88 17.34 6.003zM924.523 296.662l-121.557 70.4c-5.329 3.123-11.221 5.163-17.34 6.003s-12.343 0.465-18.317-1.105c-5.973-1.57-11.58-4.301-16.495-8.043-4.915-3.738-9.045-8.414-12.147-13.751l-46.933-81.664c-6.118-10.778-7.727-23.535-4.476-35.494 3.255-11.959 11.106-22.144 21.841-28.335l121.557-70.4c5.329-3.123 11.221-5.163 17.34-6.003s12.343-0.465 18.317 1.105c5.973 1.57 11.575 4.301 16.491 8.043 4.915 3.738 9.045 8.414 12.151 13.751l46.933 81.664c6.118 10.778 7.727 23.535 4.471 35.494-3.251 11.959-11.102 22.144-21.837 28.335z" />
<glyph unicode="&#xe917;" d="M509.687 760.325l288.994-166.822v-333.645l-288.994-166.822-288.997 166.822v333.645l288.997 166.822zM509.687 917.334c-14.421-0.141-28.578-3.849-41.216-10.794l-351.309-204.602c-12.529-7.176-22.939-17.536-30.177-30.029s-11.046-26.678-11.038-41.116v-408.225c-0.008-14.438 3.8-28.621 11.038-41.114s17.648-22.852 30.177-30.029l353.762-204.604c12.578-7.091 26.773-10.82 41.216-10.82 14.438 0 28.634 3.729 41.212 10.82l353.762 204.604c12.531 7.177 22.938 17.536 30.178 30.029 7.236 12.493 11.046 26.675 11.038 41.114v408.225c0.009 14.438-3.802 28.623-11.038 41.116-7.241 12.493-17.647 22.853-30.178 30.029l-356.215 204.602c-12.634 6.945-26.795 10.654-41.212 10.794z" />
<glyph unicode="&#xe918;" d="M509.679 344.756c45.252 0 81.937 36.689 81.937 81.941s-36.685 81.937-81.937 81.937c-45.252 0-81.941-36.685-81.941-81.937s36.689-81.941 81.941-81.941z" />
<glyph unicode="&#xe919;" d="M896 810.667h-768c-23.564 0-42.667-19.103-42.667-42.667v-85.333c0-23.564 19.103-42.667 42.667-42.667h768c23.565 0 42.667 19.103 42.667 42.667v85.333c0 23.564-19.102 42.667-42.667 42.667z" />
<glyph unicode="&#xe91a;" d="M896 341.334h-768c-11.316 0-22.168 4.497-30.17 12.497s-12.497 18.854-12.497 30.17v85.333c0 11.315 4.495 22.17 12.497 30.17s18.854 12.497 30.17 12.497h768c11.315 0 22.17-4.497 30.17-12.497s12.497-18.854 12.497-30.17v-85.333c0-11.315-4.497-22.17-12.497-30.17s-18.854-12.497-30.17-12.497zM938.667 85.334v85.333c0 11.315-4.497 22.17-12.497 30.17s-18.854 12.497-30.17 12.497h-768c-11.316 0-22.168-4.497-30.17-12.497s-12.497-18.854-12.497-30.17v-85.333c0-11.315 4.495-22.17 12.497-30.17s18.854-12.497 30.17-12.497h768c11.315 0 22.17 4.497 30.17 12.497s12.497 18.854 12.497 30.17z" />
<glyph unicode="&#xe91b;" d="M516.399-10.41l-77.986 34.812c-10.103 4.881-17.965 13.436-21.977 23.915-4.012 10.483-3.874 22.101 0.386 32.482l17.183 39.215c20.032 42.59 30.421 89.079 30.421 136.149 0 47.066-10.389 93.555-30.421 136.145-29.826 64.341-45.276 134.409-45.276 205.327s15.45 140.984 45.276 205.325l17.186 38.774c4.804 10.183 13.325 18.14 23.812 22.237 10.492 4.097 22.148 4.023 32.585-0.207l77.986-34.808c10.108-4.883 17.967-13.438 21.978-23.919 4.015-10.481 3.874-22.097-0.384-32.48l-17.186-37.452c-20.032-42.592-30.421-89.080-30.421-136.149s10.389-93.556 30.421-136.15c29.828-64.337 45.278-134.404 45.278-205.325 0-70.916-15.45-140.983-45.278-205.325l-17.182-38.771c-4.489-10.5-12.873-18.85-23.394-23.287-10.522-4.442-22.353-4.621-33.007-0.508zM876.378 11.623l17.186 38.771c29.709 64.375 45.099 134.43 45.099 205.325 0 70.899-15.39 140.954-45.099 205.325-20.032 42.594-30.421 89.082-30.421 136.15s10.389 93.556 30.421 136.148l17.626 39.215c4.258 10.382 4.399 21.999 0.384 32.48-4.011 10.481-11.87 19.035-21.978 23.919l-77.986 34.808c-10.436 4.23-22.093 4.304-32.585 0.207-10.487-4.097-19.008-12.054-23.812-22.237l-17.626-38.774c-29.828-64.34-45.278-134.407-45.278-205.325s15.45-140.985 45.278-205.327c20.032-42.59 30.421-89.079 30.421-136.145 0-47.070-10.389-93.559-30.421-136.149l-17.182-39.215c-4.262-10.381-4.399-21.999-0.388-32.482 4.011-10.479 11.87-19.034 21.978-23.915l77.986-34.812c10.436-4.228 22.093-4.301 32.585-0.205 10.487 4.096 19.008 12.053 23.812 22.238z" />
<glyph unicode="&#xe91c;" d="M212.384-10.406l-77.988 34.807c-10.104 4.885-17.964 13.44-21.977 23.919s-3.874 22.097 0.387 32.478l17.625 39.215c20.033 42.594 30.42 89.084 30.42 136.149 0 47.070-10.387 93.555-30.42 136.149-29.711 64.371-45.098 134.426-45.098 205.325s15.386 140.952 45.098 205.325l17.184 38.774c4.802 10.077 13.249 17.957 23.636 22.046s21.939 4.084 32.322-0.015l77.988-34.808c10.104-4.883 17.964-13.438 21.977-23.919s3.874-22.097-0.387-32.48l-16.743-37.452c-20.033-42.592-30.42-89.081-30.42-136.149s10.387-93.559 30.42-136.148c29.827-64.341 45.277-134.409 45.277-205.325s-15.45-140.983-45.277-205.325l-17.624-38.775c-4.486-10.5-12.872-18.85-23.393-23.287s-22.353-4.621-33.005-0.503z" />
<glyph unicode="&#xe91d;" d="M77.725 422.558l34.578 77.474c4.851 10.035 13.35 17.844 23.761 21.83s21.951 3.849 32.265-0.384l38.956-17.072c42.311-19.9 88.493-30.217 135.25-30.217s92.938 10.317 135.25 30.217c63.915 29.632 133.521 44.98 203.968 44.98 70.451 0 140.053-15.348 203.972-44.98l38.515-17.067c10.116-4.774 18.022-13.239 22.093-23.659s3.998-22.003-0.205-32.371l-34.581-77.47c-4.851-10.039-13.346-17.847-23.761-21.833-10.411-3.985-21.948-3.849-32.265 0.384l-37.205 17.071c-42.308 19.9-88.491 30.217-135.249 30.217s-92.937-10.317-135.249-30.217c-63.915-29.632-133.521-44.979-203.97-44.979s-140.054 15.347-203.97 44.979l-38.518 17.071c-10.432 4.454-18.726 12.787-23.135 23.236-4.409 10.453-4.589 22.208-0.501 32.789zM99.61 64.952l38.518-17.067c63.948-29.517 133.539-44.8 203.97-44.8s140.023 15.283 203.972 44.8c42.308 19.9 88.491 30.217 135.249 30.217s92.937-10.317 135.249-30.217l38.955-17.51c10.317-4.233 21.854-4.369 32.265-0.384 10.415 3.985 18.91 11.793 23.761 21.833l34.581 77.474c4.203 10.364 4.275 21.948 0.205 32.367s-11.977 18.884-22.093 23.659l-38.515 17.506c-63.919 29.632-133.521 44.979-203.972 44.979-70.447 0-140.053-15.347-203.968-44.979-42.313-19.9-88.493-30.217-135.25-30.217s-92.939 10.317-135.25 30.217l-38.956 17.071c-10.314 4.233-21.853 4.369-32.265 0.384s-18.91-11.793-23.761-21.833l-34.578-77.909c-4.073-10.313-4.078-21.79-0.016-32.107 4.063-10.321 11.89-18.714 21.901-23.484z" />
<glyph unicode="&#xe91e;" d="M77.722 724.558l34.578 77.473c4.851 10.038 13.35 17.846 23.761 21.832s21.951 3.848 32.265-0.384l38.956-17.508c42.311-19.901 88.493-30.22 135.25-30.22s92.94 10.319 135.249 30.22c63.949 29.515 133.542 44.8 203.972 44.8s140.019-15.285 203.968-44.8l38.519-17.071c10.010-4.77 17.839-13.161 21.901-23.48s4.058-21.794-0.017-32.108l-34.577-77.473c-4.851-10.038-13.35-17.846-23.761-21.832s-21.952-3.848-32.265 0.384l-37.205 16.633c-42.313 19.901-88.495 30.22-135.249 30.22-46.758 0-92.941-10.319-135.253-30.22-63.915-29.629-133.519-44.978-203.968-44.978s-140.054 15.348-203.97 44.978l-38.518 17.508c-10.432 4.456-18.726 12.787-23.135 23.238s-4.589 22.206-0.501 32.788z" />
<glyph unicode="&#xe91f;" d="M453.312 485.355c123.046 124.222 287.394 198.983 461.888 210.112 12.275 0.911 23.748 6.469 32.073 15.542 8.32 9.073 12.873 20.978 12.727 33.29v85.568c0 11.882-4.723 23.277-13.124 31.678s-19.797 13.122-31.676 13.122c-222.246-10.86-432.499-104.026-589.836-261.364-157.338-157.337-250.504-367.59-261.364-589.836 0-11.878 4.72-23.275 13.122-31.676s19.796-13.124 31.678-13.124h86.912c12.080 0.192 23.651 4.894 32.439 13.184s14.156 19.571 15.049 31.616c11.13 174.494 85.891 338.842 210.112 461.888z" />
<glyph unicode="&#xe920;" d="M643.268 295.399c72.815 73.421 169.015 119.066 271.936 129.020 11.938 0.986 23.1 6.319 31.356 14.993 8.26 8.674 13.047 20.079 13.444 32.047v89.602c0.026 6.238-1.25 12.413-3.75 18.129s-6.165 10.847-10.761 15.064c-4.599 4.217-10.027 7.428-15.936 9.427s-12.169 2.741-18.385 2.179c-149.653-11.261-290.308-75.813-396.433-181.932-106.12-106.125-170.671-246.78-181.932-396.433-0.561-6.217 0.181-12.476 2.179-18.385s5.21-11.337 9.427-15.936c4.218-4.595 9.348-8.26 15.064-10.761s11.891-3.776 18.129-3.75h89.602c12.279-0.043 24.128 4.544 33.178 12.847s14.639 19.712 15.654 31.953c9.468 102.69 54.464 198.857 127.228 271.936zM706.436 232.231c54.908 54.827 126.123 90.355 202.944 101.248 6.353 0.832 12.813 0.29 18.94-1.583 6.127-1.877 11.78-5.043 16.576-9.289 4.8-4.245 8.631-9.472 11.238-15.326s3.925-12.198 3.87-18.603v-86.016c-0.205-11.52-4.373-22.618-11.797-31.428s-17.651-14.801-28.971-16.956c-32.751-7.548-62.72-24.149-86.485-47.915s-40.367-53.734-47.915-86.485c-2.082-11.477-8.094-21.867-17.007-29.389-8.909-7.522-20.164-11.703-31.825-11.827h-86.464c-6.404-0.055-12.749 1.263-18.603 3.87s-11.081 6.438-15.326 11.238c-4.245 4.796-7.411 10.449-9.289 16.576-1.873 6.127-2.415 12.587-1.583 18.94 11.017 76.877 46.707 148.1 101.696 202.944z" />
<glyph unicode="&#xe921;" d="M840.926-42.683h-657.832c-8.323 0.627-16.332 3.405-23.223 8.047-6.892 4.646-12.423 10.995-16.040 18.411-3.617 7.42-5.192 15.642-4.567 23.851 0.625 8.205 3.427 16.107 8.126 22.908l288.928 302.251c8.883 11.482 20.335 20.783 33.463 27.187s27.58 9.737 42.227 9.737c14.647 0 29.099-3.332 42.227-9.737s24.58-15.706 33.468-27.187l289.404-303.189c4.476-6.822 7.078-14.669 7.552-22.78 0.478-8.107-1.186-16.201-4.834-23.484s-9.148-13.513-15.966-18.069c-6.818-4.561-14.72-7.3-22.933-7.945z" />
<glyph unicode="&#xe922;" d="M877.094 822.784l-289.399-302.251c-8.887-11.482-20.339-20.787-33.468-27.191s-27.58-9.737-42.227-9.737c-14.647 0-29.099 3.332-42.227 9.737s-24.58 15.71-33.468 27.191l-289.401 302.251c-4.713 6.834-7.512 14.775-8.114 23.017s1.015 16.497 4.686 23.926c3.671 7.43 9.268 13.772 16.223 18.385s15.023 7.334 23.387 7.888h657.833c8.363-0.553 16.431-3.274 23.386-7.888s12.553-10.955 16.222-18.385c3.669-7.43 5.286-15.683 4.685-23.926s-3.401-16.183-8.115-23.017z" />
<glyph unicode="&#xe923;" d="M771.947 447.437l-259.947-458.091h449.758c7.185-0.038 14.255 1.86 20.484 5.5 6.234 3.639 11.405 8.892 14.993 15.223 3.584 6.327 5.461 13.508 5.431 20.813s-1.958 14.473-5.598 20.77l-225.122 395.785z" />
<glyph unicode="&#xe924;" d="M512-10.666h-449.756c-7.187-0.034-14.255 1.865-20.487 5.504s-11.403 8.887-14.991 15.219c-3.587 6.327-5.462 13.513-5.433 20.817s1.96 14.468 5.597 20.77l225.123 395.78 259.946-458.091zM476.685 843.21l-224.631-395.786h519.893l-224.631 395.786c-3.567 6.318-8.708 11.567-14.912 15.217-6.199 3.65-13.239 5.573-20.403 5.573s-14.204-1.923-20.403-5.573c-6.204-3.651-11.345-8.9-14.912-15.217z" />
<glyph unicode="&#xe925;" d="M981.333 426.667c0-92.826-27.524-183.565-79.095-260.749-51.571-77.18-124.873-137.335-210.633-172.86-85.76-35.52-180.126-44.817-271.168-26.705-91.042 18.108-174.669 62.81-240.306 128.444-65.638 65.638-110.337 149.265-128.446 240.307s-8.815 185.409 26.708 271.169c35.523 85.76 95.678 159.059 172.86 210.63s167.922 79.097 260.748 79.097c61.632 0 122.662-12.14 179.605-35.726s108.681-58.157 152.265-101.739c43.58-43.582 78.153-95.321 101.739-152.263s35.725-117.974 35.725-179.606zM629.333 778.667c-69.619 0-137.673-20.644-195.563-59.322-57.884-38.679-103.001-93.653-129.643-157.973-26.642-64.317-33.613-135.093-20.031-203.377 13.582-68.279 47.107-130.999 96.335-180.228 49.23-49.229 111.95-82.752 180.23-96.337 68.279-13.581 139.055-6.609 203.375 20.032s119.296 71.757 157.973 129.647c38.677 57.886 59.324 125.939 59.324 195.558 0 93.356-37.086 182.889-103.1 248.902-66.010 66.013-155.546 103.098-248.9 103.098z" />
<glyph unicode="&#xe926;" d="M981.333 426.667c0-69.619-20.646-137.673-59.324-195.563-38.677-57.886-93.653-103.002-157.973-129.643s-135.095-33.613-203.375-20.032c-68.279 13.585-130.999 47.108-180.23 96.337-49.228 49.229-82.753 111.949-96.335 180.228-13.582 68.284-6.612 139.059 20.031 203.377 26.642 64.32 71.759 119.294 129.643 157.972 57.89 38.679 125.943 59.323 195.563 59.323 93.355 0 182.891-37.085 248.9-103.098 66.014-66.013 103.1-155.545 103.1-248.902zM512 661.334c-46.413 0-91.783-13.763-130.374-39.549s-68.669-62.435-86.43-105.315c-17.762-42.878-22.409-90.063-13.354-135.584s31.405-87.334 64.224-120.154c32.818-32.819 74.632-55.168 120.153-64.222s92.706-4.407 135.586 13.355c42.88 17.758 79.526 47.838 105.314 86.43 25.783 38.588 39.548 83.959 39.548 130.372 0 62.238-24.725 121.926-68.732 165.935-44.011 44.009-103.697 68.732-165.935 68.732z" />
<glyph unicode="&#xe927;" d="M483.362 645.798c24.393 24.514 55.484 41.218 89.34 47.999s68.958 3.334 100.86-9.905c31.906-13.239 59.174-35.674 78.362-64.468 19.191-28.793 29.431-62.649 29.431-97.284s-10.24-68.492-29.431-97.283c-19.187-28.796-46.455-51.23-78.362-64.469-31.902-13.239-67.004-16.687-100.86-9.903-33.856 6.78-64.947 23.484-89.34 47.996-32.538 32.879-50.795 77.329-50.795 123.66 0 46.329 18.257 90.779 50.795 123.657zM343.022 786.584c-52.495-52.442-88.294-119.334-102.862-192.204s-7.248-148.437 21.032-217.13c28.279-68.689 76.246-127.415 137.824-168.738s133.997-63.381 208.079-63.381c74.086 0 146.505 22.059 208.085 63.381 61.577 41.323 109.542 100.049 137.822 168.738 28.279 68.693 35.601 144.261 21.030 217.13-14.566 72.869-50.364 139.761-102.861 192.204-70.14 70.067-165.090 109.406-264.077 109.406-98.982 0-193.935-39.339-264.073-109.406z" />
<glyph unicode="&#xe928;" d="M480.090 169.946c-34.223-13.359-71.77-15.573-107.319-6.332-35.549 9.246-67.298 29.474-90.749 57.822-23.451 28.352-37.415 63.386-39.914 100.139s6.595 73.365 25.992 104.649c19.397 31.279 48.114 55.646 82.083 69.645s71.468 16.917 107.181 8.346c35.716-8.572 67.84-28.198 91.814-56.102 23.979-27.904 38.596-62.669 41.783-99.371 37.717-3.797 75.631 4.996 107.861 25.020 32.226 20.028 56.96 50.163 70.37 85.734-29.35 82.104-86.289 151.394-161.024 195.968-74.739 44.575-162.62 61.652-248.543 48.299s-164.532-56.303-222.324-121.474-91.159-148.492-94.371-235.66c-3.213-87.164 23.93-172.732 76.765-242.005s128.068-117.931 212.774-137.613c84.707-19.682 173.601-9.161 251.416 29.751 77.815 38.916 139.699 103.799 175.014 183.505-88.137-39.364-188.023-43.063-278.814-10.321z" />
<glyph unicode="&#xe929;" d="M512.009-27.656c1.421-10.654 5.978-20.642 13.094-28.698 7.121-8.055 16.478-13.815 26.884-16.546 10.406-2.726 21.389-2.304 31.552 1.22s19.046 9.993 25.519 18.573l333.329 507.383c4.634 8.23 7.031 17.532 6.955 26.978-0.077 9.442-2.628 18.701-7.394 26.859-4.77 8.156-11.593 14.924-19.789 19.633s-17.485 7.195-26.94 7.212h-383.211v-562.615z" />
<glyph unicode="&#xe92a;" d="M512 880.983c-1.417 10.651-5.978 20.641-13.094 28.698-7.121 8.057-16.478 13.816-26.884 16.545s-21.389 2.304-31.552-1.22c-10.163-3.524-19.046-9.989-25.52-18.571l-333.327-507.384c-4.634-8.23-7.031-17.532-6.953-26.974 0.078-9.446 2.627-18.705 7.395-26.863 4.768-8.154 11.589-14.925 19.786-19.631 8.197-4.71 17.485-7.198 26.941-7.215h383.209v562.617z" />
<glyph unicode="&#xe92b;" d="M274.514-28.172c-9.101-6.677-20.089-10.287-31.377-10.317-11.288-0.026-22.293 3.533-31.427 10.167-9.134 6.63-15.924 15.996-19.391 26.739-3.467 10.739-3.432 22.306 0.102 33.028l90.889 279.509-237.975 172.497c-9.72 6.387-17.081 15.787-20.957 26.756-3.877 10.966-4.056 22.901-0.51 33.981s10.621 20.694 20.145 27.374c9.524 6.68 20.972 10.058 32.597 9.618h870.783c11.622 0.439 23.074-2.938 32.597-9.618s16.597-16.294 20.143-27.374c3.546-11.079 3.366-23.015-0.512-33.981-3.874-10.97-11.234-20.369-20.954-26.756l-704.153-511.625z" />
<glyph unicode="&#xe92c;" d="M463.138 859.232l-179.825-548.269 466.174-339.127c9.105-6.677 20.092-10.291 31.377-10.317 11.29-0.030 22.293 3.533 31.428 10.163 9.135 6.635 15.923 15.996 19.392 26.739s3.43 22.31-0.102 33.028l-270.716 827.782c-4.13 9.527-10.957 17.639-19.639 23.337s-18.837 8.733-29.222 8.733c-10.385 0-20.544-3.036-29.227-8.733s-15.509-13.809-19.639-23.337z" />
<glyph unicode="&#xe92d;" d="M752.239 818.043v-203.1l-240.239-140.877v282.251l172.719 99.559c6.711 3.951 14.31 6.071 22.067 6.154 7.753 0.083 15.398-1.873 22.191-5.679s12.501-9.332 16.576-16.044c4.079-6.712 6.379-14.381 6.686-22.264zM45.221 340.16l172.718-99.558 240.727 136.397-240.238 143.861-172.718-99.56c-7.302-3.831-13.434-9.626-17.731-16.747-4.297-7.125-6.595-15.313-6.646-23.671s2.149-16.572 6.36-23.753c4.211-7.177 10.272-13.043 17.527-16.969zM805.572 35.512v203.098l-240.239 138.389v-282.253l173.205-99.558c6.878-3.921 14.647-5.939 22.532-5.85 7.885 0.094 15.612 2.291 22.396 6.374 6.788 4.083 12.403 9.907 16.282 16.892 3.883 6.985 5.888 14.882 5.824 22.908z" />
<glyph unicode="&#xe92e;" d="M339.286 857.864l172.719-99.559v-282.248l-240.24 138.883v203.1c-0.028 8.053 2.031 15.971 5.971 22.955s9.62 12.789 16.467 16.828c6.848 4.038 14.621 6.169 22.537 6.176s15.692-2.109 22.547-6.136zM285.464-4.313l173.207 99.558v281.749l-240.239-138.385v-203.102c0.020-7.979 2.091-15.817 6.005-22.733s9.536-12.668 16.31-16.695c6.773-4.023 14.463-6.174 22.307-6.246 7.843-0.068 15.569 1.95 22.41 5.854zM978.782 419.307l-172.719 99.56-240.725-141.872 240.239-138.385 172.719 99.558c7.3 3.831 13.431 9.626 17.728 16.751s6.596 15.309 6.647 23.667c0.051 8.358-2.15 16.572-6.362 23.753-4.211 7.177-10.27 13.047-17.527 16.969z" />
<glyph unicode="&#xe92f;" d="M282.667 34.509l-229.333 132.557v264.649l229.333 132.557 229.333-132.557v-264.649l-229.333-132.557zM924.8 20.749v105.954l-91.733 53.205-91.733-53.205v-105.954l91.733-52.745 91.733 52.745z" />
<glyph unicode="&#xe930;" d="M970.667 329.43v370.603l-321.067 185.301-321.069-185.301v-370.603l321.069-185.758 321.067 185.758z" />
<glyph unicode="&#xe931;" d="M935.322 127.796l-377.869-150.498c-30.234-12.39-64.119-12.39-94.353 0l-375.121 150.498c-10.223 4.070-18.99 11.127-25.167 20.245-6.176 9.122-9.478 19.891-9.478 30.912s3.302 21.79 9.478 30.908c6.177 9.122 14.944 16.175 25.167 20.25l57.253 23.403 283.517-113.792c52.369-20.796 110.686-20.796 163.055 0l286.263 113.792 58.628-23.403c10.172-4.207 18.846-11.379 24.9-20.582 6.054-9.207 9.216-20.019 9.067-31.044-0.149-11.021-3.597-21.743-9.899-30.784-6.298-9.037-15.164-15.97-25.442-19.904zM557.453 225.063l376.495 150.955c10.078 4.147 18.701 11.204 24.768 20.275 6.071 9.067 9.31 19.738 9.31 30.656s-3.238 21.589-9.31 30.656c-6.067 9.067-14.69 16.124-24.768 20.275l-376.495 150.952c-29.508 11.211-62.097 11.211-91.605 0l-377.869-150.952c-10.081-4.151-18.703-11.209-24.771-20.275s-9.308-19.738-9.308-30.656c0-10.918 3.24-21.589 9.308-30.656 6.068-9.071 14.69-16.128 24.771-20.275l377.869-150.955c29.508-11.209 62.097-11.209 91.605 0z" />
<glyph unicode="&#xe932;" d="M465.847 472.828l-377.869 150.952c-10.223 4.074-18.99 11.128-25.167 20.249s-9.478 19.889-9.478 30.91c0 11.022 3.302 21.789 9.478 30.91s14.944 16.175 25.167 20.249l377.869 150.495c29.427 11.654 62.178 11.654 91.605 0l376.495-150.495c10.223-4.074 18.991-11.128 25.165-20.249 6.178-9.121 9.481-19.889 9.481-30.91s-3.302-21.789-9.481-30.91c-6.174-9.12-14.942-16.175-25.165-20.249l-376.495-150.952c-29.508-11.213-62.097-11.213-91.605 0z" />
<glyph unicode="&#xe933;" d="M712.294 727.104l264.892-264.892c4.693-4.655 8.422-10.193 10.961-16.294 2.543-6.101 3.853-12.646 3.853-19.26 0-6.609-1.31-13.154-3.853-19.255-2.539-6.101-6.268-11.639-10.961-16.294l-164.74-164.745-300.446 300.444 200.294 200.296zM46.812 391.109l264.892-264.892 200.296 200.294-300.445 300.445-164.744-164.744c-4.693-4.655-8.418-10.193-10.961-16.294s-3.851-12.646-3.851-19.26c0-6.609 1.309-13.154 3.851-19.255s6.267-11.639 10.961-16.294z" />
<glyph unicode="&#xe934;" d="M812.45 226.373l-264.892-264.892c-4.655-4.693-10.193-8.422-16.294-10.961-6.101-2.543-12.646-3.853-19.255-3.853-6.613 0-13.158 1.31-19.26 3.853-6.101 2.539-11.639 6.268-16.294 10.961l-164.744 164.74 300.445 300.446 200.294-200.294zM476.454 891.855l-264.892-264.892 200.296-200.296 300.444 300.445-164.745 164.744c-4.655 4.693-10.193 8.418-16.294 10.961s-12.646 3.851-19.255 3.851c-6.613 0-13.158-1.309-19.26-3.851s-11.639-6.267-16.294-10.961z" />
<glyph unicode="&#xe935;" d="M265.6 471.467c111.34 0 201.6 90.26 201.6 201.6s-90.26 201.6-201.6 201.6c-111.341 0-201.6-90.259-201.6-201.6s90.259-201.6 201.6-201.6z" />
<glyph unicode="&#xe936;" d="M557.867 678.934c0 40.822 12.105 80.727 34.786 114.67 22.677 33.942 54.912 60.397 92.629 76.019 37.713 15.622 79.215 19.709 119.253 11.745 40.034-7.964 76.813-27.622 105.677-56.487 28.868-28.866 48.525-65.643 56.486-105.68 7.966-40.038 3.878-81.538-11.742-119.252-15.625-37.715-42.078-69.95-76.019-92.628-33.941-22.682-73.847-34.786-114.671-34.786-27.123-0.060-53.99 5.235-79.057 15.59-25.071 10.351-47.846 25.55-67.025 44.728s-34.377 41.955-44.727 67.025c-10.355 25.069-15.65 51.935-15.59 79.057zM259.734-32c40.822 0 80.727 12.105 114.67 34.786 33.942 22.677 60.396 54.912 76.020 92.629 15.62 37.713 19.708 79.215 11.746 119.253-7.966 40.034-27.622 76.813-56.489 105.677-28.865 28.868-65.642 48.525-105.68 56.491-40.038 7.962-81.538 3.874-119.252-11.746-37.715-15.625-69.95-42.078-92.629-76.019s-34.785-73.847-34.785-114.671c-0.061-27.123 5.237-53.986 15.588-79.057 10.351-25.067 25.552-47.846 44.73-67.025s41.955-34.377 67.024-44.727c25.069-10.351 51.936-15.65 79.057-15.59zM764.267-32c40.823 0 80.73 12.105 114.671 34.786 33.941 22.677 60.395 54.912 76.019 92.629 15.62 37.713 19.708 79.215 11.742 119.253-7.962 40.034-27.618 76.813-56.486 105.677-28.864 28.868-65.643 48.525-105.677 56.491-40.038 7.962-81.54 3.874-119.253-11.746-37.717-15.625-69.952-42.078-92.629-76.019-22.682-33.941-34.786-73.847-34.786-114.671-0.060-27.123 5.235-53.986 15.59-79.057 10.351-25.067 25.549-47.846 44.727-67.025s41.954-34.377 67.025-44.727c25.067-10.351 51.934-15.65 79.057-15.59z" />
<glyph unicode="&#xe937;" d="M181.895 638.878c65.111 0 117.894 52.783 117.894 117.894s-52.783 117.895-117.894 117.895c-65.111 0-117.895-52.783-117.895-117.895s52.783-117.894 117.895-117.894z" />
<glyph unicode="&#xe938;" d="M629.897 756.772c0-23.317-6.916-46.111-19.87-65.499s-31.369-34.499-52.911-43.421c-21.542-8.923-45.248-11.258-68.117-6.709s-43.874 15.777-60.361 32.265c-16.49 16.488-27.718 37.495-32.267 60.364s-2.214 46.574 6.708 68.116c8.923 21.542 24.035 39.955 43.423 52.909s42.18 19.869 65.498 19.869c31.266 0 61.257-12.421 83.362-34.531 22.11-22.109 34.534-52.096 34.534-83.364zM842.103 874.667c-23.317 0-46.11-6.915-65.498-19.869s-34.496-31.367-43.422-52.909c-8.922-21.542-11.255-45.247-6.707-68.116s15.778-43.876 32.265-60.364c16.486-16.488 37.495-27.716 60.365-32.265s46.575-2.214 68.117 6.709c21.542 8.923 39.953 24.034 52.907 43.421s19.87 42.182 19.87 65.499c0 31.268-12.42 61.255-34.53 83.364s-52.096 34.531-83.366 34.531zM181.895 544.562c-23.317 0-46.111-6.915-65.499-19.869-19.388-12.953-34.499-31.368-43.422-52.91s-11.258-45.248-6.709-68.117c4.549-22.869 15.778-43.874 32.265-60.361 16.488-16.491 37.495-27.716 60.364-32.269 22.869-4.548 46.574-2.214 68.116 6.711 21.542 8.922 39.955 24.034 52.91 43.422s19.869 42.18 19.869 65.498c0 15.484-3.050 30.814-8.975 45.116-5.925 14.306-14.609 27.302-25.556 38.246-10.948 10.95-23.944 19.634-38.248 25.559s-29.634 8.974-45.116 8.974zM512 544.562c-23.317 0-46.11-6.915-65.498-19.869-19.388-12.953-34.5-31.368-43.423-52.91s-11.258-45.248-6.708-68.117c4.549-22.869 15.777-43.874 32.267-60.361 16.486-16.491 37.491-27.716 60.361-32.269 22.869-4.548 46.575-2.214 68.117 6.711 21.542 8.922 39.957 24.034 52.911 43.422s19.87 42.18 19.87 65.498c0 31.266-12.425 61.257-34.534 83.362-22.106 22.112-52.096 34.533-83.362 34.533zM842.103 544.562c-23.317 0-46.11-6.915-65.498-19.869-19.388-12.953-34.496-31.368-43.422-52.91-8.922-21.542-11.255-45.248-6.707-68.117s15.778-43.874 32.265-60.361c16.486-16.491 37.495-27.716 60.365-32.269 22.869-4.548 46.575-2.214 68.117 6.711 21.542 8.922 39.953 24.034 52.907 43.422s19.87 42.18 19.87 65.498c0 31.266-12.42 61.257-34.53 83.362-22.11 22.112-52.096 34.533-83.366 34.533zM181.895 214.456c-23.317 0-46.111-6.912-65.499-19.87-19.388-12.954-34.499-31.364-43.422-52.907s-11.258-45.248-6.709-68.117c4.549-22.869 15.778-43.878 32.265-60.365s37.495-27.716 60.364-32.265c22.869-4.548 46.574-2.214 68.116 6.707 21.542 8.926 39.955 24.034 52.91 43.422s19.869 42.185 19.869 65.502c0 15.479-3.050 30.81-8.975 45.116-5.925 14.302-14.609 27.298-25.556 38.246s-23.944 19.631-38.248 25.557c-14.304 5.922-29.634 8.973-45.116 8.973zM512 214.456c-23.317 0-46.11-6.912-65.498-19.87-19.388-12.954-34.5-31.364-43.423-52.907s-11.258-45.248-6.708-68.117c4.549-22.869 15.777-43.878 32.267-60.365 16.486-16.486 37.491-27.716 60.361-32.265s46.575-2.214 68.117 6.707c21.542 8.926 39.957 24.034 52.911 43.422s19.87 42.185 19.87 65.502c0 31.266-12.425 61.252-34.534 83.362-22.106 22.11-52.096 34.53-83.362 34.53zM842.103 214.456c-23.317 0-46.11-6.912-65.498-19.87-19.388-12.954-34.496-31.364-43.422-52.907-8.922-21.542-11.255-45.248-6.707-68.117s15.778-43.878 32.265-60.365c16.486-16.486 37.495-27.716 60.365-32.265s46.575-2.214 68.117 6.707c21.542 8.926 39.953 24.034 52.907 43.422s19.87 42.185 19.87 65.502c0 31.266-12.42 61.252-34.53 83.362s-52.096 34.53-83.366 34.53z" />
<glyph unicode="&#xe939;" d="M153.6 695.467c49.485 0 89.6 40.115 89.6 89.6s-40.115 89.6-89.6 89.6c-49.485 0-89.6-40.115-89.6-89.6s40.115-89.6 89.6-89.6z" />
<glyph unicode="&#xe93a;" d="M601.6 426.667c0-17.719-5.257-35.046-15.1-49.779-9.847-14.733-23.838-26.219-40.213-32.998-16.371-6.784-34.385-8.559-51.767-5.099-17.378 3.456-33.344 11.989-45.875 24.521s-21.065 28.497-24.523 45.875c-3.457 17.382-1.683 35.396 5.101 51.767 6.78 16.375 18.266 30.366 32.998 40.213 14.733 9.843 32.060 15.1 49.779 15.1 23.765 0 46.554-9.438 63.356-26.244 16.806-16.802 26.244-39.59 26.244-63.356zM153.6 516.267c-17.721 0-35.044-5.257-49.779-15.1-14.735-9.847-26.219-23.838-33.001-40.213-6.781-16.371-8.556-34.385-5.099-51.767 3.457-17.378 11.991-33.344 24.522-45.875s28.496-21.065 45.876-24.521c17.381-3.46 35.396-1.685 51.769 5.099 16.372 6.78 30.366 18.266 40.211 32.998s15.1 32.060 15.1 49.779c0 23.765-9.44 46.554-26.243 63.356-16.803 16.806-39.593 26.244-63.357 26.244zM870.4 516.267c-17.719 0-35.046-5.257-49.779-15.1-14.733-9.847-26.219-23.838-32.998-40.213-6.784-16.371-8.559-34.385-5.103-51.767 3.46-17.378 11.994-33.344 24.525-45.875s28.493-21.065 45.875-24.521c17.382-3.46 35.396-1.685 51.767 5.099 16.375 6.78 30.366 18.266 40.213 32.998 9.843 14.733 15.1 32.060 15.1 49.779 0 23.765-9.442 46.554-26.244 63.356-16.802 16.806-39.59 26.244-63.356 26.244zM512 874.667c-17.719 0-35.046-5.255-49.779-15.1s-26.219-23.839-32.998-40.211c-6.784-16.372-8.558-34.388-5.101-51.769s11.991-33.346 24.523-45.876c12.531-12.531 28.497-21.065 45.875-24.522 17.382-3.457 35.396-1.683 51.767 5.099 16.375 6.782 30.366 18.266 40.213 33.001 9.843 14.735 15.1 32.058 15.1 49.779 0 23.763-9.438 46.554-26.244 63.357-16.802 16.803-39.59 26.243-63.356 26.243zM870.4 874.667c-17.719 0-35.046-5.255-49.779-15.1s-26.219-23.839-32.998-40.211c-6.784-16.372-8.559-34.388-5.103-51.769 3.46-17.381 11.994-33.346 24.525-45.876s28.493-21.065 45.875-24.522c17.382-3.457 35.396-1.683 51.767 5.099 16.375 6.782 30.366 18.266 40.213 33.001 9.843 14.735 15.1 32.058 15.1 49.779 0 23.763-9.442 46.554-26.244 63.357s-39.59 26.243-63.356 26.243zM512 157.867c-17.719 0-35.046-5.257-49.779-15.1-14.733-9.847-26.219-23.838-32.998-40.213-6.784-16.371-8.558-34.385-5.101-51.767 3.458-17.378 11.991-33.344 24.523-45.875s28.497-21.065 45.875-24.521c17.382-3.46 35.396-1.685 51.767 5.099 16.375 6.78 30.366 18.266 40.213 32.998 9.843 14.733 15.1 32.060 15.1 49.779 0 23.765-9.438 46.554-26.244 63.356-16.802 16.806-39.59 26.244-63.356 26.244zM153.6 157.867c-17.721 0-35.044-5.257-49.779-15.1-14.735-9.847-26.219-23.838-33.001-40.213-6.781-16.371-8.556-34.385-5.099-51.767 3.457-17.378 11.991-33.344 24.522-45.875s28.496-21.065 45.876-24.521c17.381-3.46 35.396-1.685 51.769 5.099 16.372 6.78 30.366 18.266 40.211 32.998s15.1 32.060 15.1 49.779c0 23.765-9.44 46.554-26.243 63.356-16.803 16.806-39.593 26.244-63.357 26.244zM870.4 157.867c-17.719 0-35.046-5.257-49.779-15.1-14.733-9.847-26.219-23.838-32.998-40.213-6.784-16.371-8.559-34.385-5.103-51.767 3.46-17.378 11.994-33.344 24.525-45.875s28.493-21.065 45.875-24.521c17.382-3.46 35.396-1.685 51.767 5.099 16.375 6.78 30.366 18.266 40.213 32.998 9.843 14.733 15.1 32.060 15.1 49.779 0 23.765-9.442 46.554-26.244 63.356-16.802 16.806-39.59 26.244-63.356 26.244z" />
<glyph unicode="&#xe93b;" d="M982.75 427.759c-0.009-40.845-5.389-81.515-16.004-120.96l-784.11 454.655c66.043 64.738 149.696 108.585 240.51 126.063s184.765 7.816 270.12-27.782 158.332-95.554 209.818-172.38c51.482-76.826 79.194-167.116 79.667-259.596z" />
<glyph unicode="&#xe93c;" d="M120.047 167.953c-59.776 90.914-86.206 199.731-74.794 307.938 11.413 108.204 59.963 209.113 137.391 285.557l202.382-118.605v-321.93l-264.979-152.96zM757.786 427.755l-575.142-333.696c58.56-58.167 131.386-99.908 211.172-121.041 79.788-21.133 163.727-20.915 243.402 0.636 79.676 21.555 152.282 63.68 210.534 122.15 58.253 58.475 100.105 131.238 121.357 210.991l-211.324 120.96z" />
<glyph unicode="&#xe93d;" d="M843.947 758.594c45.76-45.612 81.536-100.237 105.067-160.408l-171.196-171.195-436.669 436.666c84.945 33.287 177.755 41.078 267.061 22.417s171.23-62.963 235.738-127.479zM75.677 255.796c22.473-57.57 56.1-110.127 98.95-154.658s94.077-80.154 150.738-104.823c56.661-24.67 117.639-37.897 179.429-38.925s123.174 10.163 180.625 32.934l-438.545 436.668-171.196-171.196z" />
<glyph unicode="&#xe93e;" d="M341.137 863.656l171.195-171.196-436.666-436.668c-22.77 57.451-33.963 118.835-32.935 180.625s14.257 122.767 38.927 179.428c24.669 56.661 60.293 107.888 104.823 150.738s97.089 76.477 154.657 98.95v-1.876zM512.333 160.111l171.196-171.196c57.57 22.473 110.127 56.098 154.658 98.948s80.154 94.076 104.823 150.737c24.67 56.661 37.897 117.641 38.925 179.43s-10.163 123.172-32.934 180.622l-436.668-438.542z" />
<glyph unicode="&#xe93f;" d="M981.316 426.667c-0.004-82.385-21.692-163.319-62.891-234.667l-270.805 469.333h270.805c41.199-71.346 62.886-152.282 62.891-234.667zM105.542 661.334l135.637-234.667 270.804 469.333c-82.381-0.002-163.313-21.689-234.659-62.882s-130.591-100.439-171.783-171.785zM105.542 192c41.192-71.347 100.437-130.594 171.783-171.785 71.345-41.195 152.278-62.882 234.659-62.882l135.637 234.667h-542.079z" />
<glyph unicode="&#xe940;" d="M918.421 661.334h-542.081l135.638 234.667c82.381-0.002 163.315-21.689 234.658-62.882 71.347-41.193 130.59-100.439 171.785-171.785zM105.535 661.334c-41.193-71.348-62.879-152.282-62.879-234.667s21.686-163.319 62.879-234.667h270.805l-270.805 469.333zM782.784 426.667l-270.805-469.333c82.381 0 163.315 21.687 234.658 62.882 71.347 41.19 130.59 100.437 171.785 171.785l-135.637 234.667z" />
<glyph unicode="&#xe941;" d="M376.371 661.345l-135.171-234.674h-198.533c0.002 82.385 21.69 163.32 62.883 234.667s100.442 130.594 171.789 171.787l99.032-171.78zM746.684 833.125l-99.029-171.78 135.168-234.674h198.537c-0.004 82.385-21.692 163.32-62.886 234.667-41.19 71.347-100.442 130.594-171.789 171.787zM647.654 192h-271.283l-99.032-171.78c71.349-41.195 152.284-62.882 234.673-62.882 82.385 0 163.324 21.687 234.671 62.882l-99.029 171.78z" />
<glyph unicode="&#xe942;" d="M746.684 833.131l-99.029-171.781h-271.283l-99.032 171.781c71.349 41.193 152.284 62.88 234.673 62.88 82.385 0 163.324-21.687 234.671-62.88zM782.822 426.676l-135.168-234.671 99.029-171.78c71.347 41.195 130.598 100.442 171.789 171.789 41.195 71.347 62.882 152.277 62.886 234.662h-198.537zM241.2 426.676h-198.533c0.002-82.385 21.69-163.315 62.883-234.662s100.442-130.594 171.789-171.789l99.032 171.78-135.171 234.671z" />
<glyph unicode="&#xe943;" d="M981.333 426.667c0-11.264 0-22.528 0-33.323l-117.333 116.395-120.619-120.619c2.278 12.386 3.375 24.956 3.285 37.547-0.064 55.684-19.925 109.533-56.034 151.92-36.113 42.387-86.118 70.552-141.086 79.462l-120.619 120.618 116.395 117.333c118.609-8.442 229.594-61.592 310.528-148.711s125.781-201.711 125.483-320.623zM474.453 195.29c-54.967 8.909-104.974 37.073-141.085 79.458-36.111 42.389-55.972 96.235-56.035 151.919-0.093 12.591 1.007 25.165 3.285 37.547l-120.618-120.619-117.333 116.395c0-10.795 0-22.059 0-33.323-0.3-118.908 44.547-233.502 125.481-320.619 80.933-87.121 191.918-140.271 310.528-148.71l116.395 115.925-120.619 122.027z" />
<glyph unicode="&#xe944;" d="M981.329 393.344c-8.439-118.609-61.589-229.594-148.71-310.528-87.117-80.934-201.711-125.781-320.619-125.483-11.264 0-22.528 0-33.323 0l116.395 115.925-120.619 122.027c12.382-2.278 24.956-3.375 37.547-3.285 55.684 0.064 109.53 19.925 151.919 56.034 42.385 36.113 70.549 86.118 79.458 141.086l120.619 120.619 117.333-116.395zM428.928 778.666l116.395 117.333c-10.795 0-22.059 0-33.323 0-118.912 0.3-233.504-44.547-320.623-125.481s-140.268-191.918-148.711-310.528l117.333-116.395 120.618 120.619c8.91 54.967 37.075 104.974 79.462 141.085s96.236 55.972 151.92 56.035c12.591 0.093 25.161-1.007 37.547-3.285l-120.619 120.618z" />
<glyph unicode="&#xe945;" d="M512.721 141.927v284.471l240.017-142.481c24.265-14.447 44.403-35.2 58.394-60.173 13.986-24.973 21.329-53.282 21.291-82.091s-7.458-57.101-21.513-82.031c-14.054-24.934-34.249-45.628-58.556-60.006-24.303-14.379-51.866-21.939-79.915-21.914s-55.599 7.629-79.885 22.050c-24.282 14.421-44.442 35.149-58.458 60.105-14.012 24.956-21.385 53.261-21.376 82.069zM272.705 283.917l240.016 142.481-240.016 142.483c-24.37 14.501-52.029 22.153-80.193 22.186s-55.84-7.555-80.242-21.999c-24.402-14.444-44.668-35.236-58.76-60.28s-21.51-53.461-21.51-82.389c0-28.928 7.419-57.344 21.51-82.389s34.358-45.837 58.76-60.279c24.401-14.443 52.078-22.033 80.242-21.999s55.823 7.684 80.193 22.187zM512.721 710.871v-284.472l240.017 142.483c24.265 14.448 44.403 35.2 58.394 60.171 13.986 24.972 21.329 53.283 21.291 82.092s-7.458 57.1-21.513 82.032c-14.054 24.932-34.249 45.627-58.556 60.006-24.303 14.379-51.866 21.936-79.915 21.912s-55.599-7.628-79.885-22.049c-24.282-14.421-44.442-35.15-58.458-60.106-14.012-24.956-21.385-53.26-21.376-82.068z" />
<glyph unicode="&#xe946;" d="M272.711 568.881c-24.268 14.448-44.406 35.2-58.393 60.171s-21.33 53.283-21.292 82.092c0.038 28.809 7.457 57.1 21.511 82.032s34.248 45.627 58.554 60.006c24.306 14.379 51.868 21.936 79.918 21.912s55.6-7.628 79.882-22.049c24.282-14.421 44.442-35.15 58.458-60.106 14.012-24.956 21.385-53.26 21.376-82.068v-284.472l-240.014 142.483zM752.742 283.917c24.307-14.293 51.849-21.773 79.855-21.692 28.011 0.077 55.509 7.714 79.74 22.144s44.343 35.145 58.325 60.075c13.982 24.926 21.342 53.188 21.342 81.954s-7.36 57.028-21.342 81.958c-13.982 24.925-34.095 45.641-58.325 60.070s-51.729 22.067-79.74 22.147c-28.006 0.080-55.548-7.401-79.855-21.692l-240.017-142.483 240.017-142.481zM272.711 283.917c-24.268-14.447-44.406-35.2-58.393-60.173s-21.33-53.282-21.292-82.091c0.038-28.809 7.457-57.101 21.511-82.031 14.054-24.934 34.248-45.628 58.554-60.006s51.868-21.939 79.918-21.914c28.050 0.026 55.6 7.629 79.882 22.050s44.442 35.149 58.458 60.105c14.012 24.956 21.385 53.261 21.376 82.069v284.471l-240.014-142.481z" />
<glyph unicode="&#xe947;" d="M620.838 295.109c11.597-32.393 16.013-66.918 12.941-101.188s-13.555-67.465-30.724-97.284c-26.675-45.363-67.511-80.721-116.228-100.629-48.721-19.908-102.627-23.27-153.443-9.57s-95.727 43.703-127.836 85.406c-32.109 41.698-49.638 92.787-49.895 145.417 47.963-28.241 104.365-38.618 159.239-29.295 54.874 9.318 104.686 37.739 140.631 80.235 18.978-7.509 39.185-11.422 59.593-11.533 38.63 0.183 75.998 13.769 105.724 38.443zM349.8 397.952c-1.697 8.875-2.662 17.877-2.883 26.91 0.055 24.922 5.696 49.515 16.508 71.966 10.811 22.456 26.518 42.202 45.965 57.786-18.914 52.404-18.675 109.81 0.675 162.055s56.564 95.958 105.050 123.399c-30.221 18.393-64.132 29.885-99.309 33.656s-70.752-0.272-104.185-11.84c-33.433-11.569-63.899-30.377-89.222-55.083s-44.878-54.698-57.268-87.835c-12.391-33.137-17.311-68.602-14.409-103.861s13.553-69.442 31.194-100.108c17.641-30.667 41.836-57.056 70.858-77.293 29.021-20.233 62.152-33.805 97.027-39.753zM755.396 665.144c-34.347-0.214-68.245-7.789-99.418-22.213-31.168-14.424-58.884-35.363-81.276-61.405 27.52-10.349 51.806-27.81 70.379-50.604 18.573-22.792 30.767-50.103 35.345-79.15 54.49-10.27 103.62-39.407 138.769-82.291 35.153-42.884 54.076-96.777 53.457-152.222 45.367 26.423 80.832 66.978 100.971 115.465s23.842 102.234 10.543 153.024c-13.295 50.788-42.863 95.825-84.177 128.222-41.31 32.397-92.1 50.371-144.593 51.174z" />
<glyph unicode="&#xe948;" d="M409.388 554.615c-11.596 32.394-16.012 66.922-12.942 101.192s13.553 67.463 30.724 97.28c26.675 45.367 67.511 80.721 116.228 100.63 48.721 19.909 102.626 23.272 153.442 9.572s95.727-43.705 127.838-85.405c32.107-41.7 49.638-92.789 49.894-145.418-47.962 28.241-104.367 38.618-159.241 29.297s-104.683-37.741-140.629-80.237c-18.978 7.511-39.185 11.422-59.593 11.534-38.63-0.182-75.998-13.771-105.723-38.445zM349.798 397.952c-54.489 10.274-103.62 39.407-138.77 82.291s-54.076 96.777-53.455 152.223c-31.124-16.91-58.125-40.492-79.069-69.059s-35.314-61.408-42.079-96.177c-6.766-34.773-5.76-70.605 2.944-104.943 8.704-34.334 24.892-66.321 47.405-93.666 22.513-27.349 50.793-49.382 82.817-64.521s66.998-23.010 102.42-23.049c35.422-0.038 70.414 7.753 102.472 22.818s60.39 37.035 82.961 64.329c-27.878 10.069-52.559 27.409-71.485 50.223s-31.41 50.27-36.159 79.531zM843.337 336.922c-17.357 29.683-40.879 55.3-68.983 75.115s-60.134 33.365-93.926 39.74c1.694-8.879 2.658-17.877 2.88-26.914-0.055-24.922-5.696-49.51-16.508-71.966s-26.517-42.202-45.965-57.783c18.914-52.407 18.675-109.811-0.674-162.057s-56.563-95.957-105.050-123.401c45.717-26.15 98.765-36.557 150.972-29.615 52.211 6.942 100.693 30.844 137.988 68.032 37.299 37.188 61.346 85.602 68.437 137.788 7.095 52.19-3.153 105.267-29.171 151.061z" />
<glyph unicode="&#xe949;" d="M504.401 603.31l-204.711-354.704-142.175-244.288-112.861 195.43c-8.299 14.946-12.654 31.761-12.654 48.858s4.355 33.907 12.654 48.858l318.062 551.599 141.685-245.753z" />
<glyph unicode="&#xe94a;" d="M504.393 603.318l-141.686 244.287h226.209c17.387 0.242 34.517-4.158 49.634-12.746s27.665-21.054 36.356-36.111l261.875-452.909h-283.861l-148.527 257.479zM299.68 248.615l-142.175-244.288h635.148c17.463-0.329 34.701 4.028 49.907 12.621 15.211 8.593 27.84 21.107 36.57 36.237l112.862 195.43h-692.311z" />
<glyph unicode="&#xe94b;" d="M512-32c253.316 0 458.667 205.35 458.667 458.667 0 253.315-205.35 458.667-458.667 458.667-253.315 0-458.667-205.352-458.667-458.667 0-253.316 205.352-458.667 458.667-458.667z" />
<glyph unicode="&#xe94c;" d="M362.016 701.867c-28.326 15.725-57.758 29.368-88.064 40.821 45.591 49.513 95.986 94.376 150.443 133.931 28.858 5.69 58.191 8.608 87.605 8.715 29.871-0.083 59.665-3.001 88.981-8.715-88.508-45.066-169.19-104.070-238.965-174.752zM512 591.787c86.844 82.32 192.503 142.156 307.763 174.293-27.738 25.583-58.551 47.615-91.733 65.589-106.778-39.713-204.1-101.262-285.747-180.715 24.354-18.372 47.629-38.127 69.717-59.168zM282.667 59.734c0-9.783 0-19.418 0-28.898-36.052 20.211-69.091 45.38-98.155 74.765-11.715 44.736-39.892 83.396-78.891 108.245-19.040 36.156-33.081 74.731-41.739 114.667 61.752-12.932 117.186-46.694 157.015-95.625s61.637-110.063 61.769-173.154zM449.165 524.822c-86.875 83.058-195.485 139.828-313.271 163.744-18.208-26.769-33.58-55.36-45.867-85.312 115.663-17.146 222.753-71.013 305.472-153.653 16.153 26.266 34.082 51.401 53.666 75.221zM62.048 514.731c-5.714-29.009-8.632-58.5-8.715-88.064v-2.752c52.020-6.579 102.026-24.226 146.65-51.763 44.623-27.533 82.828-64.307 112.038-107.853 10.134 34.185 22.703 67.601 37.611 99.989-74.135 83.759-176.501 137.31-287.584 150.443zM466.133 59.734c0.205 131.759 47.671 259.072 133.773 358.81 86.101 99.736 205.124 165.276 335.445 184.71-12.288 30.098-27.657 58.842-45.871 85.771-145.293-29.327-275.968-108.017-369.852-222.716-93.882-114.701-145.195-258.351-145.229-406.575 0-24.311 0-48.162 4.128-72.013 31.104-9.216 63.072-15.206 95.405-17.886-4.932 29.717-7.539 59.776-7.799 89.899zM839.488 105.6c11.716 44.736 39.893 83.396 78.891 108.245 19.038 36.156 33.079 74.731 41.741 114.667-61.756-12.932-117.188-46.694-157.018-95.625s-61.636-110.063-61.769-173.154c0-9.783 0-19.418 0-28.898 36.053 20.211 69.090 45.38 98.155 74.765zM649.6 59.734c0.081 89.314 32.738 175.535 91.844 242.496s140.608 110.063 229.222 121.225v3.213c-0.081 29.564-2.999 59.055-8.717 88.064-62.579-7.535-122.935-27.891-177.297-59.793-54.366-31.902-101.568-74.667-138.671-125.623-37.099-50.957-63.296-109.018-76.958-170.551s-14.494-125.222-2.441-187.093c31.185 3.315 61.935 9.929 91.729 19.725-5.013 22.46-7.932 45.338-8.713 68.339z" />
<glyph unicode="&#xe94d;" d="M704.986 249.707c3.58 14.912 5.397 30.199 5.41 45.538 0.273 34.82-8.905 69.056-26.551 99.004-17.242 30.067-42.035 55.044-71.889 72.422-29.858 17.374-63.727 26.543-98.214 26.577-10.202-0.474-20.378-1.468-30.481-2.97-196.654-25.246-330.871-200.478-431.656-370.756l407.075 712.307c5.547 9.773 13.559 17.896 23.232 23.546 9.668 5.65 20.651 8.625 31.829 8.625s22.161-2.976 31.829-8.625c9.673-5.649 17.685-13.773 23.232-23.546l14.75-26.235c94.886-169.786 176.004-370.261 121.434-555.887z" />
<glyph unicode="&#xe94e;" d="M941.47-10.654c-192.226 0-409.532 17.327-547.68 150.976 34.178-27.093 76.457-41.749 119.959-41.579 35.059-0.068 69.504 9.306 99.759 27.149 30.255 17.839 55.219 43.503 72.311 74.325 7.454 13.769 13.231 28.395 17.207 43.558-0.149 2.142-0.149 4.292 0 6.438 56.538 184.141-26.547 384.614-121.434 554.4l412.975-720.228c5.316-9.553 8.107-20.318 8.098-31.27-0.009-10.948-2.812-21.713-8.145-31.258s-13.013-17.549-22.302-23.241c-9.293-5.696-19.878-8.887-30.75-9.271zM351.509 85.376c-22.595 40.674-37.749 85.107-44.739 131.174-20.157 121.276 44.247 256.414 175.512 275.221-196.652-25.242-330.869-200.474-431.654-370.756l-20.648-35.639c-5.679-9.796-8.664-20.937-8.647-32.282s3.034-22.477 8.742-32.256c5.708-9.779 13.9-17.852 23.734-23.386 9.834-5.538 20.954-8.333 32.218-8.107h347.095c-32.209 27.055-59.493 59.55-80.63 96.030h-0.983z" />
<glyph unicode="&#xe94f;" d="M819.008-0c-66.948 54.967-409.482 61.385-536.958 17.865-12.114-3.593-24.972-3.874-37.231-0.811-12.26 3.059-23.472 9.353-32.468 18.219l-127.017 126.886c101.339 102.153 402.146 133.76 634.172 99.405 16.964-114.061 49.98-212.092 99.503-261.564zM854.315 859.812c-9.109 9.435-20.672 16.147-33.387 19.383-12.719 3.237-26.086 2.869-38.605-1.060-127.475-45.808-470.009-37.104-536.957 17.865 60.986-59.55 89.875-162.618 104.549-262.479 60.735-8.872 122.038-13.312 183.418-13.284 186.172 0 372.8 37.562 448 112.687l-127.019 126.888z" />
<glyph unicode="&#xe950;" d="M963.895 197.432c3.721-12.271 4.019-25.323 0.87-37.756-3.153-12.429-9.634-23.765-18.752-32.789l-126.558-125.513c-102.716 99.861-134.353 400.358-99.964 632.147 114.176 16.949 212.305 49.93 261.828 99.403-54.566-65.963-60.983-408.145-17.425-535.492zM360.909 452.583c0 123.221-15.591 344.472-113.261 442.501l-127.017-126.888c-9.534-9.233-16.269-20.964-19.432-33.847s-2.627-26.396 1.549-38.988c21.485-79.403 31.522-161.462 29.806-243.696 0-174.071-32.098-272.559-45.855-290.423 48.606 50.846 147.194 83.831 263.206 100.779 8.435 63.155 12.114 126.852 11.005 190.562z" />
<glyph unicode="&#xe951;" d="M981.333 614.4h-657.067l187.733 187.733h328.533c14.827 0.049 29.367-4.059 41.98-11.857 12.608-7.798 22.78-18.974 29.359-32.26l69.461-143.616zM114.475 95.318c6.58-13.286 16.751-24.461 29.361-32.26s27.152-11.904 41.978-11.857h328.533l187.733 187.733h-659.413l71.808-143.616zM843.349 29.142c12.932 6.4 23.876 16.205 31.65 28.361 7.774 12.16 12.083 26.206 12.467 40.631v328.533l-187.733 187.733v-657.067l143.616 71.808zM180.651 824.192c-13.286-6.58-24.462-16.751-32.26-29.361s-11.906-27.152-11.857-41.978v-328.533l187.733-187.733v659.413l-143.616-71.808z" />
<glyph unicode="&#xe952;" d="M981.333 614.4l-93.867-187.733-187.733 187.733h281.6zM324.267 238.934l-187.733 187.733-93.867-187.733h281.6zM699.733 238.934l-187.733-187.733 187.733-93.867v281.6zM324.267 614.4l187.733 187.733-187.733 93.867v-281.6z" />
<glyph unicode="&#xe953;" d="M328.533 885.334v-642.133h-275.2v337.579c-0.013 9.281 1.804 18.473 5.345 27.051s8.739 16.375 15.295 22.944l254.56 254.56zM695.467 610.134v-642.133l254.558 254.562c6.558 6.566 11.755 14.362 15.296 22.942 3.541 8.576 5.359 17.771 5.346 27.051v337.579h-275.2z" />
<glyph unicode="&#xe954;" d="M970.667 610.134h-642.133v275.2h337.579c9.28 0.013 18.475-1.804 27.051-5.345 8.58-3.541 16.375-8.739 22.942-15.295l254.562-254.56zM53.333 243.2l254.56-254.558c6.569-6.558 14.365-11.755 22.944-15.296s17.77-5.359 27.051-5.346h337.579v275.2h-642.133z" />
<glyph unicode="&#xe955;" d="M64 426.961l358.4-107.52 537.6 107.52-358.4 107.518-537.6-107.518z" />
<glyph unicode="&#xe956;" d="M910.72 596.317l-846.72-169.343v218.623c0.032 14.154 4.956 27.862 13.937 38.802s21.467 18.44 35.343 21.23l784.896 156.8c7.471 1.609 15.202 1.521 22.635-0.257s14.37-5.2 20.301-10.015c5.935-4.815 10.709-10.9 13.978-17.806s4.949-14.458 4.911-22.098v-155.904c-0.034-14.154-4.958-27.862-13.939-38.802-8.977-10.94-21.466-18.44-35.341-21.23zM960 208.35v218.624l-846.72-169.344c-13.876-2.79-26.362-10.291-35.343-21.231s-13.904-24.649-13.937-38.801v-155.904c-0.037-7.642 1.641-15.194 4.909-22.097 3.269-6.908 8.046-12.992 13.978-17.809 5.932-4.813 12.87-8.235 20.301-10.014s15.166-1.865 22.636-0.256l784.896 156.8c13.875 2.79 26.364 10.287 35.341 21.231 8.981 10.94 13.905 24.644 13.939 38.801z" />
<glyph unicode="&#xe957;" d="M332.816-21.324c-11.882 0-23.277 4.719-31.679 13.12s-13.121 19.797-13.121 31.68v537.6c0 11.881 4.72 23.276 13.121 31.678s19.797 13.122 31.679 13.122c11.881 0 23.276-4.72 31.678-13.122s13.122-19.797 13.122-31.678v-537.6c0-11.883-4.72-23.279-13.122-31.68s-19.797-13.12-31.678-13.12z" />
<glyph unicode="&#xe958;" d="M153.602 292.267c-11.882 0-23.277 4.719-31.678 13.12-8.402 8.405-13.122 19.797-13.122 31.68v358.4c0 11.882 4.72 23.277 13.122 31.678s19.796 13.122 31.678 13.122c11.882 0 23.277-4.72 31.678-13.122s13.122-19.796 13.122-31.678v-358.4c0-11.883-4.72-23.275-13.122-31.68-8.401-8.401-19.796-13.12-31.678-13.12zM556.8 113.067v716.8c0 11.882-4.719 23.277-13.12 31.678s-19.797 13.122-31.68 13.122c-11.878 0-23.275-4.72-31.676-13.122s-13.124-19.796-13.124-31.678v-716.8c0-11.883 4.723-23.275 13.124-31.68 8.401-8.401 19.797-13.12 31.676-13.12 11.883 0 23.279 4.719 31.68 13.12 8.401 8.405 13.12 19.797 13.12 31.68zM736 247.467v492.8c0 11.882-4.719 23.277-13.12 31.678s-19.797 13.122-31.68 13.122c-11.878 0-23.275-4.72-31.676-13.122s-13.124-19.796-13.124-31.678v-492.8c0-11.883 4.723-23.275 13.124-31.68 8.401-8.401 19.797-13.12 31.676-13.12 11.883 0 23.279 4.719 31.68 13.12 8.401 8.405 13.12 19.797 13.12 31.68zM915.2 157.867v358.4c0 11.882-4.719 23.277-13.12 31.678s-19.797 13.122-31.68 13.122c-11.878 0-23.275-4.72-31.676-13.122s-13.124-19.796-13.124-31.678v-358.4c0-11.883 4.723-23.275 13.124-31.68 8.401-8.401 19.797-13.12 31.676-13.12 11.883 0 23.279 4.719 31.68 13.12 8.401 8.405 13.12 19.797 13.12 31.68z" />
<glyph unicode="&#xe959;" d="M511.851 917.334c-496.556-317.952-588.801-853.76 0-981.333 588.8 127.573 496.555 663.381 0 981.333z" />
<glyph unicode="&#xe95a;" d="M511.846-64l407.744 407.744c6.379-184.491-118.251-345.429-407.744-407.744zM869.052 538.539c-26.453 53.717-59.413 103.979-98.133 149.653l-259.072-261.525v-245.333l357.205 357.205zM371.517 812.331c-43.947-37.76-84.5-79.298-121.195-124.139l261.524-261.525v245.333l-140.329 140.331zM511.846 917.334v-245.333l140.331 140.331c-44.096 38.448-90.999 73.547-140.331 105.003zM104.104 343.744l407.742-407.744v245.333l-357.204 357.205c-30.124-60.74-47.332-127.070-50.539-194.795z" />
<glyph unicode="&#xe95b;" d="M465.894 788.666c7.659 13.19 18.611 24.129 31.77 31.732s28.058 11.602 43.226 11.602c15.168 0 30.071-4 43.23-11.602 13.154-7.602 24.107-18.542 31.77-31.732l182.029-318.373 182.515-318.379c7.582-13.227 11.571-28.233 11.575-43.507 0.004-15.27-3.981-30.281-11.558-43.511-7.573-13.231-18.47-24.222-31.595-31.868s-28.015-11.678-43.174-11.691h-728.122c-15.161 0.013-30.051 4.045-43.176 11.691s-24.022 18.637-31.596 31.868c-7.575 13.231-11.561 28.241-11.558 43.511 0.003 15.275 3.996 30.281 11.576 43.507l182.516 318.379 180.574 318.373z" />
<glyph unicode="&#xe95c;" d="M188.715 407.198c7.593 13.197 18.496 24.154 31.616 31.77s27.996 11.627 43.138 11.627c15.142 0 30.018-4.011 43.138-11.627s24.023-18.573 31.616-31.77l73.297-127.155 72.811-127.642c7.701-13.244 11.793-28.297 11.857-43.644 0.068-15.347-3.895-30.438-11.486-43.746-7.59-13.303-18.534-24.354-31.727-32.026s-28.165-11.691-43.397-11.652h-291.248c-15.161 0.013-30.051 4.045-43.176 11.691s-24.022 18.637-31.596 31.868c-7.575 13.231-11.561 28.237-11.558 43.511s3.996 30.281 11.576 43.507l72.327 128.132 72.812 127.155z" />
<glyph unicode="&#xe95d;" d="M512-42.666c259.204 0 469.333 210.129 469.333 469.333 0 259.206-210.129 469.333-469.333 469.333-259.206 0-469.333-210.128-469.333-469.333s210.128-469.333 469.333-469.333z" />
<glyph unicode="&#xe95e;" d="M255.606 170.266c68.010-68.011 160.216-106.274 256.399-106.398 96.218 0 188.497 38.225 256.533 106.261s106.261 160.316 106.261 256.533c0 96.221-38.225 188.499-106.261 256.536s-160.316 106.26-256.533 106.26c-9.335 0-18.291-3.709-24.892-10.31s-10.308-15.555-10.308-24.89c0-9.335 3.708-18.289 10.308-24.89s15.556-10.31 24.892-10.31c57.83 0 114.359-17.149 162.445-49.277s85.559-77.795 107.691-131.223c22.131-53.43 27.921-112.22 16.64-168.937-11.281-56.721-39.13-108.821-80.021-149.713s-92.992-68.74-149.713-80.021c-56.717-11.281-115.507-5.491-168.937 16.64-53.428 22.131-99.094 59.605-131.223 107.691s-49.277 104.614-49.277 162.445c0 9.335-3.709 18.291-10.31 24.892s-15.555 10.308-24.89 10.308c-9.335 0-18.289-3.708-24.89-10.308s-10.31-15.556-10.31-24.892c0.124-96.179 38.387-188.386 106.397-256.397zM487.1 209.809c6.605-6.605 15.556-10.313 24.892-10.313 60.245 0 118.025 23.936 160.623 66.534 42.603 42.598 66.534 100.378 66.534 160.623s-23.932 118.025-66.534 160.626c-42.598 42.6-100.378 66.533-160.623 66.533-9.335 0-18.287-3.709-24.892-10.31-6.601-6.601-10.308-15.555-10.308-24.89s3.708-18.289 10.308-24.89c6.605-6.601 15.556-10.31 24.892-10.31 41.574 0 81.446-16.515 110.844-45.913 29.397-29.399 45.914-69.271 45.914-110.845s-16.516-81.446-45.914-110.844c-29.397-29.397-69.269-45.914-110.844-45.914-9.335 0-18.287-3.708-24.892-10.308-6.601-6.601-10.308-15.556-10.308-24.892s3.708-18.287 10.308-24.887z" />
<glyph unicode="&#xe95f;" d="M416.004 746.667h-125.333c-73.129 0-143.263-29.196-194.973-81.166s-80.76-165.336-80.76-238.834c1.054-72.798 30.569-185.131 82.165-236.233s121.129-79.744 193.568-79.735h125.333c13.295 0 26.048 5.308 35.447 14.754 9.404 9.451 14.686 22.268 14.686 35.631v535.198c0 13.363-5.282 26.179-14.686 35.628-9.399 9.449-22.153 14.758-35.447 14.758zM616.538 106.667h125.333c73.131 0 143.262 29.197 194.974 81.165 51.708 51.972 80.759 165.338 80.759 238.835-1.054 72.798-30.571 185.132-82.163 236.233-51.597 51.101-121.131 79.744-193.57 79.736h-125.333c-13.295 0-26.048-5.309-35.452-14.758-9.399-9.449-14.682-22.265-14.682-35.628v-535.199c0-13.363 5.282-26.18 14.682-35.627 9.404-9.451 22.157-14.758 35.452-14.758z" />
<glyph unicode="&#xe960;" d="M720.811 388.89h-401.065c-9.972 0-19.536 3.981-26.587 11.068s-11.013 16.7-11.013 26.722c0 10.022 3.962 19.635 11.013 26.722s16.615 11.068 26.587 11.068h401.065c9.975 0 19.537-3.981 26.59-11.068 7.049-7.087 11.012-16.7 11.012-26.722s-3.964-19.635-11.012-26.722c-7.053-7.087-16.614-11.068-26.59-11.068z" />
<glyph unicode="&#xe961;" d="M432.375-7.855l-330.082 323.763c-13.242 12.907-22.247 29.402-25.859 47.369-3.611 17.963-1.665 36.578 5.591 53.449l19.785 47.334c7.363 16.802 19.531 31.151 35.031 41.318 15.501 10.162 33.671 15.704 52.315 15.955h475.82l-209.92 205.9c-15.795 15.605-24.661 36.704-24.661 58.693s8.866 43.088 24.661 58.694l17.374 16.567c15.825 15.464 37.257 24.146 59.597 24.146s43.767-8.682 59.597-24.146l330.082-323.76c13.239-12.908 22.246-29.403 25.856-47.37 3.614-17.963 1.668-36.578-5.589-53.449l-19.785-47.334c-7.364-16.802-19.533-31.151-35.029-41.318-15.501-10.163-33.673-15.706-52.318-15.957h-475.818l209.919-205.897c15.795-15.607 24.661-36.706 24.661-58.697s-8.866-43.085-24.661-58.692l-17.374-16.567c-15.825-15.462-37.257-24.145-59.597-24.145s-43.767 8.683-59.597 24.145z" />
<glyph unicode="&#xe962;" d="M359.024 332.011h309.332l-226.812 189.333h-252.387c-18.644-0.251-36.814-5.793-52.315-15.957s-27.668-24.516-35.031-41.318l-19.785-47.33c-7.255-16.875-9.202-35.486-5.591-53.453s12.617-34.462 25.859-47.369l330.082-323.759c15.829-15.467 37.257-24.149 59.597-24.149s43.772 8.683 59.597 24.149l17.374 17.037c15.765 15.526 24.619 36.548 24.619 58.458 0 21.914-8.853 42.931-24.619 58.458l-209.919 205.901z" />
<glyph unicode="&#xe963;" d="M977.911 476.165h-200.96c-27.887 0.764-55.343 7.087-80.755 18.603s-48.265 27.991-67.221 48.459c-18.957 20.468-33.638 44.516-43.174 70.733-9.54 26.217-13.743 54.075-12.369 81.94v206.080h-209.068c-64.088-0.788-125.245-26.975-170.042-72.812s-69.574-107.578-68.891-171.668v-366.935c0-5.547 0-11.52 0-17.067 26.987 16.823 58.228 25.557 90.027 25.173 22.702 0.004 45.177-4.518 66.109-13.308s39.9-21.666 55.793-37.879c15.893-16.209 28.393-35.43 36.766-56.529 8.373-21.103 12.452-43.665 11.998-66.364-0.278-27.618-6.999-54.793-19.627-79.36h373.761c64.085 0.789 125.244 26.978 170.039 72.815 44.8 45.837 69.577 107.575 68.894 171.665l-1.28 186.453z" />
<glyph unicode="&#xe964;" d="M776.951 541.445h200.533l-340.48 359.68v-205.227c-1.331-19.415 1.271-38.897 7.65-57.283s16.401-35.294 29.466-49.715c13.069-14.421 28.907-26.057 46.579-34.211 17.668-8.154 36.8-12.659 56.252-13.245zM92.383 247.68c32.646 32.644 76.924 50.987 123.093 50.987s90.447-18.342 123.093-50.987c32.646-32.649 50.987-76.924 50.987-123.093s-18.34-90.445-50.987-123.093c-32.646-32.644-76.924-50.987-123.093-50.987s-90.447 18.342-123.093 50.987c-32.646 32.649-50.987 76.924-50.987 123.093s18.34 90.445 50.987 123.093zM247.476 91.307h31.573v0.853c4.447 0.043 8.837 1.003 12.897 2.816s7.704 4.442 10.705 7.723c3.001 3.281 5.296 7.147 6.74 11.354 1.445 4.203 2.009 8.661 1.658 13.094 0.113 4.237-0.616 8.457-2.147 12.407-1.53 3.955-3.831 7.565-6.769 10.624-2.938 3.055-6.453 5.495-10.343 7.185-3.889 1.685-8.075 2.581-12.314 2.637h-31.147v31.147c-0.917 8.013-4.751 15.411-10.77 20.779s-13.804 8.337-21.87 8.337c-8.066 0-15.85-2.97-21.869-8.337s-9.853-12.766-10.771-20.779v-31.147h-31.147c-8.428-0.311-16.434-3.767-22.438-9.694-6.004-5.922-9.568-13.884-9.989-22.306-0.288-4.386 0.306-8.781 1.748-12.932s3.701-7.97 6.645-11.234c2.944-3.264 6.512-5.901 10.494-7.761 3.982-1.856 8.296-2.897 12.687-3.059h30.293v-31.147c0.216-8.418 3.657-16.435 9.612-22.387 5.955-5.956 13.969-9.395 22.388-9.613 4.239-0.29 8.492 0.269 12.512 1.643 4.020 1.37 7.727 3.529 10.904 6.349s5.761 6.246 7.601 10.074c1.84 3.827 2.9 7.987 3.116 12.228v31.147z" />
<glyph unicode="&#xe965;" d="M475.759 769.287c8.883-22.184 24.201-41.203 43.981-54.609s43.123-20.585 67.017-20.613h137.6c43.46-0.036 86.106-11.765 123.473-33.958 37.363-22.193 68.066-54.031 88.892-92.175-3.964 64.129-32.209 124.341-78.985 168.391s-108.574 68.629-172.826 68.739h-223.369l14.217-35.776z" />
<glyph unicode="&#xe966;" d="M728.491 696.821h-137.6c-23.846-0.005-47.142 7.167-66.859 20.583-19.712 13.416-34.935 32.454-43.682 54.639l-14.217 38.528c-8.922 22.026-24.201 40.898-43.886 54.212s-42.888 20.468-66.653 20.55h-91.733c-27.625 0.060-54.991-5.329-80.531-15.859s-48.752-25.994-68.307-45.507c-19.555-19.513-35.070-42.691-45.656-68.208s-16.034-52.871-16.034-80.496v-465.548c0.122-64.149 25.69-125.628 71.094-170.944 45.403-45.321 106.932-70.771 171.082-70.771h432.981c64.149 0 125.679 25.451 171.081 70.771 45.406 45.316 70.972 106.795 71.095 170.944v244.928c0.060 31.821-6.161 63.341-18.313 92.75-12.147 29.409-29.986 56.131-52.484 78.631-22.502 22.5-49.22 40.336-78.63 52.486s-60.928 18.372-92.749 18.311zM616.576 327.595h-71.095v-70.178c0.124-4.275-0.597-8.533-2.121-12.531-1.527-3.998-3.823-7.659-6.763-10.765-2.94-3.11-6.464-5.611-10.368-7.36-3.904-1.745-8.119-2.705-12.395-2.825-8.482-0.004-16.627 3.302-22.707 9.212-6.084 5.909-9.621 13.961-9.86 22.434v72.93h-73.385c-8.637 0-16.92 3.43-23.027 9.536-6.107 6.11-9.538 14.391-9.538 23.027 0 8.64 3.431 16.922 9.538 23.027 6.107 6.11 14.39 9.54 23.027 9.54h70.633v70.635c-0.119 4.275 0.602 8.538 2.125 12.535 1.527 3.998 3.823 7.654 6.763 10.765s6.464 5.606 10.368 7.356c3.904 1.745 8.119 2.709 12.395 2.825 4.309 0.252 8.623-0.38 12.676-1.86 4.053-1.476 7.761-3.767 10.897-6.733s5.632-6.537 7.339-10.505c1.702-3.964 2.577-8.235 2.569-12.548v-72.93h73.387c8.64 0 16.922-3.43 23.027-9.536 6.11-6.106 9.54-14.391 9.54-23.027s-3.43-16.922-9.54-23.027c-6.106-6.106-14.387-9.54-23.027-9.54l-0.457-0.457z" />
<glyph unicode="&#xe967;" d="M691.486 829.959h-359.396c-145.47 0-263.397-117.927-263.397-263.397v-356.5c0-145.472 117.927-263.398 263.397-263.398h359.396c145.472 0 263.398 117.926 263.398 263.398v356.5c0 145.47-117.926 263.397-263.398 263.397z" />
<glyph unicode="&#xe968;" d="M335.452 746.024c-9.596 0-18.799 3.812-25.584 10.598s-10.597 15.988-10.597 25.583v88.282c0 9.596 3.812 18.799 10.597 25.584s15.988 10.597 25.584 10.597c9.596 0 18.799-3.812 25.584-10.597s10.597-15.988 10.597-25.584v-88.282c0-9.596-3.812-18.799-10.597-25.583s-15.988-10.598-25.584-10.598zM687.663 746.024c-4.77-0.065-9.502 0.826-13.922 2.622s-8.431 4.458-11.806 7.831c-3.371 3.372-6.037 7.387-7.829 11.806-1.796 4.419-2.688 9.153-2.624 13.922v88.282c0 9.596 3.814 18.799 10.598 25.584s15.987 10.597 25.583 10.597c9.596 0 18.799-3.812 25.583-10.597 6.788-6.785 10.598-15.988 10.598-25.584v-88.282c0-9.596-3.81-18.799-10.598-25.583-6.784-6.785-15.987-10.597-25.583-10.597zM547.268 350.934h74.291l0.964-0.964c8.444 1.003 16.23 5.065 21.879 11.422s8.768 14.566 8.768 23.070c0 8.508-3.119 16.717-8.768 23.074s-13.436 10.419-21.879 11.422h-77.188v76.702c0.004 4.557-0.913 9.071-2.701 13.265s-4.403 7.984-7.693 11.139c-3.294 3.156-7.189 5.612-11.452 7.221-4.267 1.609-8.815 2.338-13.367 2.143-9.131-0.377-17.741-4.335-23.974-11.017-6.229-6.683-9.574-15.549-9.314-24.68v-73.809h-74.291c-9.084 0-17.796-3.61-24.219-10.035-6.423-6.421-10.032-15.134-10.032-24.218s3.608-17.796 10.032-24.218c6.423-6.426 15.135-10.035 24.219-10.035h77.184v-76.702c0.252-8.917 3.972-17.382 10.368-23.599s14.967-9.69 23.885-9.685c4.497 0.124 8.93 1.135 13.035 2.97 4.109 1.839 7.817 4.467 10.906 7.74 3.093 3.268 5.508 7.117 7.113 11.324 1.604 4.203 2.364 8.683 2.236 13.18v74.291z" />
<glyph unicode="&#xe969;" d="M856.939 622.938h-269.376c-80.486 0-145.728-65.245-145.728-145.728v-395.477c0-80.482 65.242-145.728 145.728-145.728h269.376c80.482 0 145.728 65.246 145.728 145.728v395.477c0 80.483-65.246 145.728-145.728 145.728z" />
<glyph unicode="&#xe96a;" d="M430.724 628.63c-39.957-40.875-62.379-95.735-62.49-152.896l1.472-245.333h-201.173c-39.040 0-76.481 15.509-104.086 43.115s-43.114 65.045-43.114 104.085v392.533c0 39.040 15.509 76.481 43.114 104.086s65.046 43.114 104.086 43.114h266.432c39.040 0 76.48-15.509 104.085-43.114s43.115-65.046 43.115-104.086v-75.563c-57.143-1.407-111.479-25.067-151.441-65.941zM769.6 316.271h43.179c9.758 0 19.119-3.878 26.022-10.778 6.899-6.903 10.778-16.26 10.778-26.022 0-9.758-3.878-19.119-10.778-26.022-6.903-6.899-16.265-10.778-26.022-10.778h-43.179v-43.179c0-9.758-3.878-19.119-10.778-26.022-6.903-6.899-16.265-10.778-26.022-10.778-9.762 0-19.119 3.878-26.022 10.778-6.899 6.903-10.778 16.265-10.778 26.022v43.179h-43.179c-9.762 0-19.119 3.878-26.022 10.778-6.899 6.903-10.778 16.265-10.778 26.022 0 9.762 3.878 19.119 10.778 26.022 6.903 6.899 16.26 10.778 26.022 10.778h43.179v43.179c0 9.762 3.878 19.119 10.778 26.022 6.903 6.899 16.26 10.778 26.022 10.778 9.758 0 19.119-3.878 26.022-10.778 6.899-6.903 10.778-16.26 10.778-26.022v-43.179z" />
<glyph unicode="&#xe96b;" d="M947.401 610.135v91.733c0 12.165-4.83 23.831-13.431 32.433s-20.271 13.434-32.435 13.434h-91.733v-183.467h91.733c12.164 0 23.834 4.832 32.435 13.434s13.431 20.268 13.431 32.433zM901.551 472.546h-91.733v-183.467h91.733c12.164 0 23.834 4.834 32.435 13.436s13.431 20.267 13.431 32.431v91.733c0 12.164-4.83 23.834-13.431 32.435s-20.271 13.431-32.435 13.431z" />
<glyph unicode="&#xe96c;" d="M677.717-32h-469.675c-35.034 0-68.633 13.918-93.406 38.69s-38.69 58.372-38.69 93.406v653.141c0 35.034 13.917 68.633 38.69 93.406s58.372 38.69 93.406 38.69h469.675c35.034 0 68.634-13.917 93.406-38.69s38.69-58.372 38.69-93.406v-653.141c0-35.034-13.918-68.634-38.69-93.406s-58.372-38.69-93.406-38.69zM442.88 656c-18.143 0-35.879-5.38-50.964-15.46s-26.843-24.407-33.786-41.169c-6.943-16.762-8.76-35.207-5.22-53.001s12.276-34.14 25.105-46.97c12.829-12.83 29.175-21.564 46.969-25.105 17.794-3.537 36.239-1.724 53.003 5.222 16.759 6.942 31.087 18.701 41.169 33.784 10.078 15.086 15.458 32.821 15.458 50.964 0 24.329-9.664 47.662-26.867 64.865s-40.538 26.868-64.866 26.868zM592.862 243.2c7.595-0.457 15.181 0.977 22.080 4.181s12.894 8.073 17.442 14.17c4.553 6.097 7.514 13.227 8.619 20.753 1.109 7.526 0.329 15.211-2.274 22.357-16.832 37.491-44.45 69.116-79.33 90.846-34.884 21.73-75.447 32.576-116.518 31.159-40.778 1.122-80.981-9.813-115.574-31.433-34.593-21.623-62.039-52.966-78.9-90.116-11.925-29.811 12.384-61.918 70.176-61.918h274.281z" />
<glyph unicode="&#xe96d;" d="M694.66 883.012l-370.242-2.003c-149.716-0.81-270.429-122.836-269.618-272.552l1.988-367.514c0.81-149.713 122.836-270.426 272.552-269.615l370.239 2.001c149.717 0.811 270.43 122.837 269.619 272.55l-1.988 367.514c-0.811 149.716-122.833 270.429-272.55 269.618z" />
<glyph unicode="&#xe96e;" d="M802.897 472.414l-206.959 90.969c-3.665 1.664-6.78 4.352-8.956 7.741-2.18 3.389-3.332 7.334-3.324 11.363v110.528c0.026 14.978-5.858 29.362-16.375 40.026l-20.924 21.378c-4.233 4.332-9.293 7.775-14.878 10.125s-11.584 3.561-17.643 3.561c-6.059 0-12.058-1.21-17.643-3.561s-10.641-5.792-14.878-10.125l-20.924-21.378c-10.517-10.665-16.401-25.048-16.375-40.026v-110.528c0.068-4.041-1.062-8.012-3.247-11.412s-5.329-6.076-9.033-7.692l-211.049-90.969c-5.51-2.385-10.207-6.319-13.519-11.328-3.311-5.005-5.094-10.871-5.13-16.875v-71.863c0.062-5.056 1.361-10.014 3.784-14.451 2.423-4.433 5.895-8.209 10.114-10.991s9.055-4.489 14.086-4.971c5.031-0.482 10.103 0.277 14.772 2.21l170.113 74.142c3.17 1.348 6.624 1.89 10.055 1.583s6.732-1.455 9.612-3.345 5.248-4.463 6.895-7.488c1.647-3.025 2.526-6.409 2.547-9.856v-110.98c0.021-3.136-0.661-6.234-2.001-9.067-1.34-2.837-3.298-5.333-5.73-7.309l-80.053-65.954c-3.336-2.863-6.003-6.426-7.81-10.432-1.808-4.011-2.713-8.367-2.651-12.762v-67.776c0.104-5.491 1.735-10.846 4.711-15.458 2.976-4.617 7.179-8.316 12.138-10.675 4.959-2.364 10.478-3.294 15.937-2.697 5.46 0.602 10.644 2.709 14.973 6.089l99.156 80.964c5.056 4.177 11.409 6.464 17.967 6.464s12.911-2.287 17.967-6.464l99.61-80.964c4.318-2.773 9.28-4.382 14.4-4.659 5.124-0.273 10.231 0.785 14.818 3.081 4.591 2.295 8.503 5.743 11.354 10.005 2.854 4.267 4.548 9.199 4.915 14.315v67.776c-0.026 4.425-1.015 8.794-2.901 12.8s-4.621 7.552-8.017 10.394l-73.685 60.041c-2.432 1.975-4.39 4.476-5.726 7.309-1.34 2.833-2.027 5.931-2.005 9.067v114.167c0.026 3.443 0.9 6.831 2.547 9.856s4.015 5.594 6.895 7.484c2.88 1.89 6.182 3.042 9.613 3.349s6.886-0.239 10.057-1.587l166.020-72.32c4.668-1.933 9.741-2.692 14.771-2.21s9.865 2.189 14.084 4.971c4.22 2.782 7.693 6.554 10.116 10.991 2.419 4.433 3.721 9.395 3.78 14.451v71.863c0.346 5.909-1.015 11.797-3.917 16.956-2.906 5.158-7.228 9.378-12.454 12.156v0z" />
<glyph unicode="&#xe96f;" d="M912.597 487.467l-284.877 124.344c-5.090 2.306-9.417 6.023-12.459 10.71s-4.676 10.148-4.71 15.736v154.503c-0.149 20.653-8.299 40.444-22.733 55.213l-29.696 29.231c-5.794 5.949-12.719 10.676-20.369 13.905s-15.868 4.892-24.171 4.892c-8.307 0-16.525-1.663-24.175-4.892s-14.575-7.956-20.369-13.905l-28.766-29.231c-13.929-14.988-21.57-34.753-21.343-55.213v-152.647c0.365-5.964-1.137-11.895-4.297-16.966s-7.82-9.034-13.335-11.336l-290.447-124.344c-7.571-3.196-14.031-8.555-18.57-15.407-4.539-6.848-6.956-14.886-6.949-23.104v-99.29c0.044-6.972 1.813-13.824 5.15-19.942 3.337-6.123 8.137-11.319 13.972-15.134s12.524-6.123 19.469-6.724c6.945-0.597 13.931 0.533 20.333 3.29l231.987 102.076c4.388 1.933 9.19 2.739 13.969 2.342 4.779-0.393 9.384-1.975 13.395-4.604s7.302-6.221 9.572-10.441c2.271-4.224 3.45-8.951 3.429-13.747v-152.644c0.047-4.305-0.841-8.567-2.604-12.493s-4.357-7.42-7.604-10.244l-108.57-90.010c-4.64-3.742-8.382-8.478-10.951-13.858s-3.901-11.268-3.896-17.229v-92.796c0.036-7.62 2.228-15.074 6.323-21.5s9.926-11.563 16.817-14.814c6.892-3.255 14.564-4.489 22.128-3.563s14.711 3.972 20.616 8.789l136.873 111.356c6.869 5.82 15.586 9.015 24.589 9.015 9.007 0 17.719-3.196 24.593-9.015l136.87-111.356c5.905-4.817 13.052-7.863 20.617-8.789s15.236 0.307 22.127 3.563c6.895 3.251 12.723 8.388 16.819 14.814s6.285 13.879 6.323 21.5v92.796c0.107 5.978-1.178 11.9-3.755 17.297-2.577 5.393-6.374 10.116-11.093 13.79l-101.611 83.051c-3.383 2.735-6.097 6.204-7.949 10.142-1.847 3.938-2.778 8.243-2.722 12.591v156.826c-0.021 4.796 1.156 9.519 3.43 13.743 2.27 4.224 5.559 7.812 9.57 10.441s8.619 4.211 13.397 4.608c4.779 0.393 9.579-0.41 13.969-2.347l228.275-99.29c6.4-2.756 13.385-3.887 20.331-3.29 6.946 0.602 13.636 2.91 19.469 6.724 5.837 3.814 10.637 9.011 13.973 15.134 3.337 6.118 5.107 12.971 5.15 19.942v99.29c0.009 8.218-2.411 16.256-6.946 23.104-4.54 6.852-10.999 12.211-18.573 15.407v0z" />
<glyph unicode="&#xe970;" d="M627.721 611.811c-5.090 2.306-9.417 6.023-12.459 10.71s-4.676 10.148-4.71 15.736v154.503c-0.149 20.653-8.299 40.444-22.733 55.213l-29.696 29.231c-5.794 5.949-12.719 10.676-20.369 13.905s-15.868 4.892-24.171 4.892c-8.307 0-16.525-1.663-24.175-4.892s-14.575-7.956-20.369-13.905l-28.766-29.231c-13.929-14.988-21.57-34.753-21.343-55.213v-152.647c0.365-5.964-1.137-11.895-4.297-16.966s-7.82-9.034-13.335-11.336l-290.447-124.344c-7.571-3.196-14.031-8.555-18.57-15.407-4.539-6.848-6.956-14.886-6.949-23.104v-99.29c0.044-6.972 1.813-13.824 5.15-19.942 3.337-6.123 8.137-11.319 13.972-15.134s12.524-6.123 19.469-6.724c6.945-0.597 13.931 0.533 20.333 3.29l231.987 102.076c4.388 1.933 9.19 2.739 13.969 2.342 4.779-0.393 9.384-1.975 13.395-4.604s7.302-6.221 9.572-10.441c2.271-4.224 3.45-8.951 3.429-13.747v-57.997l311.791 236.628-100.681 46.397z" />
<glyph unicode="&#xe971;" d="M749.696 885.334h-475.177c-109.432 0-198.144-88.712-198.144-198.144v-521.045c0-109.431 88.712-198.144 198.144-198.144h475.177c109.431 0 198.144 88.713 198.144 198.144v521.045c0 109.432-88.713 198.144-198.144 198.144z" />
<glyph unicode="&#xe972;" d="M374.956 692.688h273.825c49.297 0 91.089-32.137 105.566-76.604h193.493v-68.8h-193.498c-14.481-44.461-56.269-76.589-105.562-76.589h-273.825c-49.292 0-91.080 32.128-105.561 76.589h-193.019v68.8h193.015c14.478 44.467 56.269 76.604 105.566 76.604z" />
<glyph unicode="&#xe973;" d="M56.595 217.024c8.918-9.003 21.013-14.059 33.625-14.059s24.707 5.056 33.626 14.059c8.918 9.003 13.928 21.21 13.928 33.941v191.996c0 12.727-5.010 24.939-13.928 33.937-8.918 9.003-21.013 14.059-33.626 14.059s-24.707-5.056-33.625-14.059c-8.918-8.998-13.928-21.21-13.928-33.937v-191.996c0-12.732 5.010-24.939 13.928-33.941zM373.125-5.329v95.996h95.107v-95.996c0-12.732-5.009-24.939-13.931-33.941-8.917-9.003-21.013-14.059-33.623-14.059-12.612 0-24.707 5.056-33.625 14.059s-13.928 21.21-13.928 33.941zM650.867 90.667h-91.307v-95.996c0-12.732 5.013-24.939 13.931-33.941s21.013-14.059 33.626-14.059c12.612 0 24.708 5.056 33.626 14.059s13.926 21.21 13.926 33.941v95.996h-3.802zM900.156 217.024c8.917-9.003 21.013-14.059 33.626-14.059s24.708 5.056 33.626 14.059c8.917 9.003 13.931 21.21 13.931 33.941v191.996c0 12.727-5.013 24.939-13.931 33.937-8.917 9.003-21.013 14.059-33.626 14.059s-24.708-5.056-33.626-14.059c-8.917-8.998-13.926-21.21-13.926-33.937v-191.996c0-12.732 5.009-24.939 13.926-33.941z" />
<glyph unicode="&#xe974;" d="M659.324 661.721c-16.333-15.408-37.961-23.799-60.309-23.398h-205.433c-22.351-0.401-43.979 7.989-60.309 23.398s-26.081 36.625-27.189 59.161c0.371 24.814 5.59 49.31 15.357 72.084s23.89 43.38 41.56 60.636c17.67 17.256 38.54 30.823 61.414 39.924s47.301 13.556 71.885 13.111c24.58 0.445 49.007-4.011 71.881-13.111s43.746-22.668 61.414-39.924c17.673-17.256 31.795-37.861 41.562-60.636s14.985-47.271 15.356-72.084c-1.109-22.536-10.859-43.753-27.187-59.161zM331.786 571.125h360.416c54.626 0 98.91-44.699 98.91-99.837v-281.271c0-55.142-44.284-99.84-98.91-99.84h-360.416c-54.627 0-98.911 44.698-98.911 99.84v281.271c0 55.139 44.284 99.837 98.911 99.837z" />
<glyph unicode="&#xe975;" d="M767.147 245.982l-66.522 138.453c-1.237 6.673-4.395 12.86-9.092 17.835l-147.874 306.007c-3.081 6.016-7.795 11.083-13.619 14.644s-12.54 5.477-19.405 5.538c-6.814 0.001-13.483-1.954-19.179-5.623s-10.176-8.893-12.885-15.028l-214.874-462.295c-1.99-4.245-3.098-8.836-3.26-13.508s0.627-9.327 2.32-13.696c1.693-4.369 4.256-8.363 7.539-11.75s7.222-6.097 11.586-7.979c4.605-2.244 9.693-3.371 14.836-3.285 6.871 0.030 13.589 1.988 19.358 5.649s10.345 8.866 13.184 15.002l58.863 126.72h252.683l61.734-127.189c1.724-4.582 4.403-8.768 7.868-12.279 3.465-3.516 7.633-6.285 12.25-8.128 4.612-1.847 9.57-2.731 14.549-2.594 4.983 0.132 9.882 1.284 14.383 3.379 4.501 2.091 8.512 5.082 11.772 8.781 3.26 3.695 5.7 8.017 7.164 12.689s1.916 9.591 1.335 14.443c-0.58 4.855-2.189 9.536-4.715 13.747v0.469zM420.666 413.534l90.929 196.183 95.71-196.183h-186.639z" />
<glyph unicode="&#xe976;" d="M569.015 884.267l253.163-93.867c33.178-12.144 61.41-34.572 80.41-63.879s27.733-63.894 24.875-98.51l-35.891-401.28c-2.402-25.25-10.906-49.574-24.802-70.959-13.901-21.385-32.794-39.211-55.121-52.006l-216.789-124.843c-24.017-13.265-50.935-20.672-78.485-21.589v0.158c-1.749-0.055-3.503-0.081-5.257-0.081-28.727 0-56.951 7.415-81.835 21.504l-217.267 124.843c-22.033 12.983-40.626 30.891-54.265 52.258-13.639 21.372-21.937 45.598-24.22 70.707l-36.849 401.279c-3.235 34.427 5.12 68.946 23.789 98.274s46.621 51.848 79.581 64.116l253.159 93.867c20.348 7.424 41.805 10.804 63.164 10.141v1.603c18.112-0.862 35.93-4.834 52.642-11.733z" />
<glyph unicode="&#xe977;" glyph-name="apple" d="M861.901 523.163c5.363 5.059 9.532 11.19 12.215 17.968s3.819 14.042 3.328 21.289c-0.491 7.247-2.594 14.304-6.17 20.682s-8.533 11.926-14.532 16.259c-35.836 28.603-79.701 46.070-125.892 50.131-70.17 4.512-126.925-40.105-194.513-40.105-67.593 0-109.385 40.105-184.196 40.105-41.242-2.507-81.204-14.898-116.316-36.067s-64.282-50.457-84.906-85.249c-71.201-104.27-58.819-300.784 54.175-472.231 40.76-60.655 94.935-129.335 166.136-129.335 62.945 0 80.489 39.603 166.138 39.603 85.645 0 103.189-40.107 164.587-39.603 71.202 0 127.957 76.198 168.717 136.858 15.795 22.737 29.935 46.524 42.308 71.185 4.915 10.88 5.696 23.1 2.197 34.483-3.494 11.388-11.042 21.197-21.286 27.678-27.166 17.199-49.988 40.132-66.769 67.085-16.785 26.957-27.098 57.237-30.17 88.602-3.076 31.36 1.169 62.989 12.412 92.54 11.247 29.547 29.205 56.252 52.535 78.124zM678.989 771.691c26.799 32.529 44.561 71.191 51.597 112.293 1.101 6.468 0.422 13.104-1.975 19.234-2.394 6.129-6.417 11.532-11.661 15.659s-11.52 6.829-18.189 7.833c-6.665 1.004-13.491 0.272-19.772-2.119-41.562-14.428-78.426-39.343-106.803-72.188-28.429-33.479-46.34-74.202-51.593-117.306-0.346-5.876 0.777-11.746 3.268-17.111s6.276-10.068 11.038-13.709c4.757-3.64 10.351-6.112 16.303-7.205s12.092-0.774 17.89 0.928c43.686 12.743 82.138 38.526 109.897 73.692z" />
<glyph unicode="&#xe978;" d="M784.567-21.12l-231.488 131.75c-12.437 7.083-26.522 10.812-40.853 10.812s-28.416-3.729-40.849-10.812l-231.491-131.75c-12.391-7.108-26.443-10.863-40.751-10.88s-28.369 3.699-40.778 10.782c-12.409 7.078-22.729 17.276-29.929 29.568-7.2 12.288-11.025 26.244-11.096 40.465v635.736c0.12 53.292 21.502 104.361 59.453 142.002s89.374 58.78 142.986 58.78h384.91c53.53-0.119 104.836-21.311 142.69-58.939s59.174-88.628 59.294-141.843v-635.736c-0.115-14.157-3.951-28.036-11.127-40.265s-17.442-22.379-29.781-29.449c-12.339-7.066-26.325-10.803-40.567-10.846-14.238-0.038-28.245 3.627-40.623 10.624z" />
<glyph unicode="&#xe979;" d="M470.455 358.789c-8.666 0.030-16.977 3.43-23.147 9.476l-71.264 67.226c-6.375 6.345-9.956 14.946-9.956 23.915s3.581 17.57 9.956 23.915c6.383 6.336 15.035 9.894 24.057 9.894s17.674-3.558 24.057-9.894l47.659-45.12 158.865 156.564c2.884 4.176 6.673 7.656 11.089 10.183s9.348 4.036 14.426 4.416c5.082 0.38 10.185-0.378 14.933-2.22 4.745-1.841 9.015-4.718 12.497-8.419 3.477-3.7 6.076-8.131 7.603-12.963s1.946-9.943 1.22-14.957c-0.725-5.014-2.573-9.801-5.406-14.010-2.837-4.209-6.583-7.732-10.97-10.309l-181.564-180.478c-6.775-5.41-15.398-7.996-24.055-7.219z" />
<glyph unicode="&#xe97a;" d="M169.021 517.021h686.292v-445.175c0-27.546-10.944-53.961-30.421-73.438s-45.892-30.421-73.438-30.421h-478.575c-27.545 0-53.962 10.944-73.439 30.421s-30.419 45.892-30.419 73.438v445.175z" />
<glyph unicode="&#xe97b;" d="M171.772 885.334h679.884c64.943 0 117.585-52.644 117.585-117.585v-136.8c0-64.94-52.642-117.585-117.585-117.585h-679.884c-64.94 0-117.585 52.644-117.585 117.585v136.8c0 64.94 52.644 117.585 117.585 117.585zM448.589 296.043h164.254c9.101 0 17.826 3.618 24.265 10.052 6.434 6.434 10.048 15.164 10.048 24.265s-3.614 17.826-10.048 24.265c-6.438 6.434-15.164 10.048-24.265 10.048h-164.254c-9.101 0-17.83-3.614-24.264-10.048-6.435-6.438-10.051-15.164-10.051-24.265s3.615-17.83 10.051-24.265c6.433-6.434 15.163-10.052 24.264-10.052z" />
<glyph unicode="&#xe97c;" d="M348.981-7.577h423.025c56.38 1.033 110.059 24.358 149.286 64.87s60.809 94.912 60.019 151.3v436.749c0.785 56.34-20.809 110.69-60.049 151.124s-92.919 63.651-149.257 64.555h-423.025c-56.338-0.904-110.016-24.12-149.256-64.555s-60.837-94.785-60.050-151.124v-277.44c-0.591-5.018-0.111-10.103 1.405-14.925 1.516-4.817 4.036-9.259 7.393-13.035s7.476-6.797 12.084-8.866c4.609-2.069 9.603-3.14 14.656-3.14s10.047 1.071 14.656 3.14c4.608 2.069 8.727 5.090 12.084 8.866s5.876 8.218 7.393 13.035c1.516 4.821 1.996 9.907 1.405 14.925v277.44c-0.394 37.144 13.919 72.937 39.815 99.568s61.275 41.939 98.415 42.584h423.025c37.141-0.645 72.516-15.953 98.415-42.584 25.894-26.631 40.209-62.423 39.817-99.568v-436.749c0.393-37.193-13.905-73.037-39.787-99.746s-61.261-42.125-98.445-42.897h-423.025c-28.101 0.209-55.466 9.011-78.422 25.22s-40.405 39.053-50.005 65.463c-1.681 4.429-4.225 8.478-7.484 11.913-3.258 3.439-7.167 6.195-11.499 8.111-4.332 1.911-9.001 2.948-13.736 3.046s-9.442-0.747-13.849-2.483c-4.513-1.924-8.601-4.719-12.031-8.226s-6.133-7.654-7.955-12.211c-1.822-4.553-2.726-9.421-2.661-14.327 0.065-4.902 1.098-9.749 3.039-14.251 14.706-39.787 41.233-74.121 76.019-98.394 34.786-24.269 76.166-37.316 118.582-37.389z" />
<glyph unicode="&#xe97d;" d="M177.415 269.871c4.979 0.064 9.892 1.143 14.442 3.166s8.642 4.945 12.027 8.597l140.191 148.032c6.029 6.741 9.361 15.467 9.361 24.512 0 9.041-3.333 17.766-9.361 24.508-6.893 6.886-16.237 10.752-25.979 10.752s-19.087-3.866-25.98-10.752l-114.702-119.603-114.702 119.603c-6.893 6.886-16.237 10.752-25.979 10.752s-19.086-3.866-25.979-10.752c-6.885-6.895-10.752-16.239-10.752-25.98s3.867-19.085 10.752-25.98l141.171-147.055c6.923-6.417 16.049-9.929 25.489-9.801z" />
<glyph unicode="&#xe97e;" d="M675.017-7.586h-423.023c-56.382 1.033-110.060 24.354-149.286 64.866-39.226 40.516-60.807 94.916-60.020 151.3v436.751c-0.786 56.34 20.81 110.69 60.050 151.124s92.918 63.651 149.256 64.554h423.023c56.341-0.903 110.016-24.119 149.257-64.554s60.838-94.785 60.053-151.124v-277.443c0.589-5.018 0.111-10.103-1.408-14.921-1.515-4.817-4.036-9.263-7.39-13.039-3.358-3.772-7.475-6.797-12.087-8.866-4.608-2.069-9.6-3.136-14.656-3.136-5.052 0-10.044 1.067-14.652 3.136-4.612 2.069-8.73 5.094-12.087 8.866-3.358 3.776-5.875 8.222-7.39 13.039-1.519 4.817-1.997 9.903-1.408 14.921v277.443c0.397 37.144-13.918 72.937-39.812 99.568-25.899 26.631-61.278 41.939-98.419 42.584h-423.023c-37.141-0.645-72.519-15.953-98.415-42.584s-40.209-62.423-39.815-99.568v-436.751c-0.396-37.188 13.902-73.033 39.785-99.742s61.261-42.125 98.446-42.897h423.023c28.105 0.209 55.467 9.007 78.426 25.216 22.955 16.209 40.405 39.053 50.005 65.468 1.681 4.425 4.224 8.474 7.484 11.913 3.255 3.435 7.164 6.191 11.499 8.107 4.331 1.916 8.998 2.953 13.734 3.051 4.736 0.094 9.442-0.747 13.85-2.483 4.51-1.924 8.602-4.719 12.028-8.226 3.43-3.507 6.135-7.659 7.957-12.211s2.726-9.425 2.658-14.327c-0.064-4.907-1.097-9.749-3.038-14.255-14.707-39.787-41.233-74.121-76.019-98.389-34.786-24.273-76.164-37.321-118.583-37.389z" />
<glyph unicode="&#xe97f;" d="M846.588 269.858c-4.979 0.068-9.894 1.143-14.443 3.166s-8.64 4.949-12.028 8.597l-140.19 148.036c-6.029 6.741-9.361 15.467-9.361 24.508 0 9.045 3.332 17.771 9.361 24.512 6.891 6.882 16.235 10.748 25.98 10.748 9.741 0 19.085-3.866 25.98-10.748l114.701-119.607 114.701 119.607c6.895 6.882 16.239 10.748 25.98 10.748 9.745 0 19.089-3.866 25.98-10.748 6.886-6.895 10.752-16.239 10.752-25.98 0-9.745-3.866-19.089-10.752-25.98l-141.171-147.055c-6.921-6.421-16.051-9.929-25.489-9.805z" />
<glyph unicode="&#xe980;" d="M835.58 750.239c17.988-17.987 17.988-47.15 0-65.137l-565.27-565.272c-17.987-17.984-47.15-17.984-65.137 0-17.987 17.988-17.987 47.151 0 65.139l565.272 565.27c17.984 17.987 47.147 17.987 65.135 0z" />
<glyph unicode="&#xe981;" d="M220.993 684.177c25.437 0 46.059-20.621 46.059-46.059v-456.405h456.404c25.438 0 46.059-20.621 46.059-46.059s-20.621-46.059-46.059-46.059h-502.463c-25.438 0-46.059 20.621-46.059 46.059v502.464c0 25.438 20.621 46.059 46.059 46.059z" />
<glyph unicode="&#xe982;" d="M936.047 422.405c25.011 0 45.286-21.009 45.286-46.933v-238.946c0-25.924-20.275-46.933-45.286-46.933h-246.703c-25.011 0-45.286 21.009-45.286 46.933 0 25.92 20.275 46.933 45.286 46.933h201.417v192.013c0 25.924 20.275 46.933 45.286 46.933z" />
<glyph unicode="&#xe983;" d="M68.424 759.125c22.563 11.184 49.602 1.294 60.393-22.090l199.799-432.958 263.648 255.019c9.459 9.151 22.242 13.67 35.127 12.417s24.636-8.159 32.29-18.973l226.428-320.002c14.793-20.902 10.432-50.27-9.737-65.6s-48.508-10.812-63.3 10.091l-196.279 277.393-271.501-262.613c-10.543-10.197-25.143-14.583-39.313-11.806s-26.218 12.382-32.44 25.865l-226.43 490.669c-10.791 23.383-1.248 51.406 21.315 62.589z" />
<glyph unicode="&#xe984;" d="M188.426 750.239c17.987 17.987 47.151 17.987 65.137 0l565.27-565.27c17.988-17.988 17.988-47.151 0-65.139-17.988-17.984-47.151-17.984-65.135 0l-565.272 565.272c-17.987 17.987-17.987 47.151 0 65.137z" />
<glyph unicode="&#xe985;" d="M254.487 135.655c0 25.438 20.622 46.059 46.059 46.059h456.403v456.405c0 25.438 20.621 46.059 46.059 46.059s46.059-20.621 46.059-46.059v-502.464c0-25.438-20.621-46.059-46.059-46.059h-502.461c-25.437 0-46.059 20.621-46.059 46.059z" />
<glyph unicode="&#xe986;" d="M512.226 883.979c-25.438 0-46.059-20.621-46.059-46.059v-799.413c0-25.438 20.621-46.059 46.059-46.059s46.059 20.621 46.059 46.059v799.413c0 25.438-20.621 46.059-46.059 46.059z" />
<glyph unicode="&#xe987;" d="M900.087 402.697c-17.988 17.988-47.151 17.988-65.139 0l-322.726-322.726-322.726 322.726c-17.987 17.988-47.15 17.988-65.137 0s-17.987-47.151 0-65.135l355.296-355.298c17.988-17.984 47.151-17.984 65.135 0l355.298 355.298c17.984 17.984 17.984 47.147 0 65.135z" />
<glyph unicode="&#xe988;" d="M969.83 426.377c0-25.438-20.621-46.059-46.059-46.059h-799.415c-25.437 0-46.059 20.621-46.059 46.059s20.622 46.063 46.059 46.063h799.415c25.438 0 46.059-20.625 46.059-46.063z" />
<glyph unicode="&#xe989;" d="M488.538 814.239c17.984-17.987 17.984-47.15 0-65.137l-322.728-322.725 322.728-322.726c17.984-17.988 17.984-47.151 0-65.139-17.988-17.988-47.151-17.988-65.139 0l-355.295 355.294c-17.987 17.988-17.987 47.151 0 65.139l355.295 355.295c17.988 17.987 47.151 17.987 65.139 0z" />
<glyph unicode="&#xe98a;" d="M106.667 704c-23.564 0-42.667-19.103-42.667-42.667s19.103-42.667 42.667-42.667h109.126l200.637-220.702c15.852-17.434 42.835-18.718 60.273-2.867 17.434 15.851 18.718 42.833 2.867 60.271l-213.332 234.665c-8.086 8.895-19.55 13.966-31.571 13.966h-128zM597.316 341.329c-15.334 17.89-42.27 19.964-60.16 4.629-17.894-15.339-19.964-42.274-4.629-60.164l139.085-142.895c8.102-9.455 19.938-14.899 32.393-14.899h110.327l-33.83-33.83c-16.661-16.661-16.661-43.678 0-60.339s43.678-16.661 60.339 0l106.667 106.667c16.666 16.661 16.666 43.678 0 60.339l-106.667 106.667c-16.661 16.661-43.678 16.661-60.339 0s-16.661-43.678 0-60.339l33.83-33.83h-90.701l-126.315 127.996z" />
<glyph unicode="&#xe98b;" d="M759.164 819.504c16.661 16.662 43.678 16.662 60.339 0l128-128c16.661-16.663 16.661-43.677 0-60.34l-128-128c-16.661-16.661-43.678-16.661-60.339 0s-16.661 43.677 0 60.34l55.164 55.163h-132.898l-392.535-475.174c-8.105-9.809-20.168-15.492-32.894-15.492h-149.333c-23.564 0-42.667 19.102-42.667 42.667s19.103 42.667 42.667 42.667h129.238l392.533 475.174c8.107 9.812 20.169 15.493 32.896 15.493h152.994l-55.164 55.163c-16.661 16.663-16.661 43.677 0 60.34z" />
<glyph unicode="&#xe98c;" d="M678.357 857.649c14.161 14.163 37.124 14.163 51.285 0l192-192c14.165-14.163 14.165-37.126 0-51.289l-192-191.998c-14.161-14.165-37.124-14.165-51.285 0-14.165 14.161-14.165 37.124 0 51.285l130.086 130.091h-680.444c-20.029 0-36.267 16.237-36.267 36.267s16.237 36.267 36.267 36.267h680.444l-130.086 130.089c-14.165 14.163-14.165 37.126 0 51.289z" />
<glyph unicode="&#xe98d;" d="M345.644 430.981c-14.163 14.165-37.126 14.165-51.289 0l-192-192c-14.163-14.161-14.163-37.124 0-51.285l192-192c14.163-14.165 37.126-14.165 51.289 0 14.163 14.161 14.163 37.124 0 51.285l-130.089 130.091h680.445c20.028 0 36.267 16.239 36.267 36.267s-16.239 36.267-36.267 36.267h-680.445l130.089 130.091c14.163 14.161 14.163 37.124 0 51.285z" />
<glyph unicode="&#xe98e;" d="M54.613 426.368c0 25.438 20.621 46.059 46.059 46.059h799.415c25.434 0 46.059-20.621 46.059-46.059s-20.625-46.059-46.059-46.059h-799.415c-25.438 0-46.059 20.621-46.059 46.059z" />
<glyph unicode="&#xe98f;" d="M535.906 38.511c-17.988 17.988-17.988 47.151 0 65.139l322.726 322.726-322.726 322.725c-17.988 17.987-17.988 47.151 0 65.137s47.151 17.987 65.139 0l355.294-355.295c17.988-17.988 17.988-47.151 0-65.139l-355.294-355.294c-17.988-17.988-47.151-17.988-65.139 0z" />
<glyph unicode="&#xe990;" d="M904.324 95.083l-332.685 332.685 321.596 323.814c7.787 7.797 12.16 18.367 12.16 29.387s-4.373 21.59-12.16 29.388c-7.799 7.788-18.368 12.162-29.389 12.162s-21.589-4.374-29.385-12.162l-323.26-319.378-319.933 324.922c-7.797 7.788-18.367 12.162-29.387 12.162s-21.59-4.374-29.387-12.162c-7.788-7.797-12.162-18.367-12.162-29.387s4.374-21.59 12.162-29.387l323.258-325.476-332.684-336.567c-6.819-7.625-10.589-17.493-10.589-27.725 0-10.227 3.77-20.096 10.589-27.721 7.921-7.607 18.409-11.959 29.387-12.198 9.862 0.832 19.102 5.158 26.060 12.198l332.686 332.685 332.685-332.685c7.919-7.607 18.406-11.959 29.389-12.198 10.999 0.124 21.525 4.497 29.385 12.198 7.053 7.415 11.123 17.173 11.426 27.405 0.307 10.231-3.166 20.215-9.762 28.041z" />
<glyph unicode="&#xe991;" d="M114.185 527.551c7.799-7.799 18.376-12.18 29.405-12.18l1.663 0.555c10.983 0.289 21.419 4.856 29.083 12.728s11.952 18.425 11.948 29.412v190.739h190.74c11.029 0 21.606 4.381 29.405 12.18s12.18 18.377 12.18 29.405c0 11.029-4.381 21.607-12.18 29.406s-18.377 12.18-29.405 12.18h-233.434c-5.487 0.194-10.951-0.794-16.022-2.899s-9.629-5.277-13.365-9.299c-4.037-3.843-7.212-8.499-9.315-13.661s-3.086-10.711-2.884-16.281v-232.88c0-11.029 4.381-21.606 12.18-29.405zM849.745 528.109c7.663-7.872 18.099-12.439 29.082-12.728 5.598-0.224 11.187 0.686 16.427 2.675s10.022 5.017 14.059 8.901c4.041 3.884 7.253 8.545 9.446 13.702s3.319 10.704 3.315 16.308v232.88c0.273 5.496-0.683 10.983-2.79 16.065-2.112 5.082-5.325 9.632-9.408 13.322-3.661 4.114-8.209 7.348-13.295 9.46-5.090 2.112-10.59 3.048-16.090 2.738h-233.434c-11.029 0-21.606-4.381-29.406-12.18s-12.181-18.377-12.181-29.405c0-11.029 4.382-21.607 12.181-29.406s18.377-12.18 29.406-12.18h190.737v-190.739c-0.004-10.987 4.284-21.541 11.951-29.412zM116.421 35.751c7.858-7.701 18.385-12.070 29.387-12.198l-0.554-2.219 232.879 2.773c5.508 0 10.961 1.092 16.044 3.217s9.691 5.235 13.56 9.156c3.869 3.921 6.921 8.572 8.977 13.679 2.057 5.111 3.078 10.577 3.005 16.085-0.426 10.94-5.036 21.295-12.878 28.932-7.842 7.633-18.318 11.968-29.262 12.1h-190.74v190.741c0.004 10.987-4.283 21.538-11.948 29.41s-18.1 12.437-29.083 12.727c-10.985-0.145-21.479-4.57-29.247-12.339-7.768-7.765-12.195-18.261-12.339-29.248v-232.879c0.099-11.17 4.463-21.879 12.198-29.939zM876.608 23.544l-232.879 2.773c-11.029 0-21.606 4.382-29.406 12.181-7.799 7.795-12.181 18.372-12.181 29.402 0.546 10.948 5.18 21.295 12.979 28.992 7.804 7.697 18.206 12.194 29.163 12.595h190.737v190.741c0 10.931 4.305 21.427 11.985 29.21s18.112 12.228 29.047 12.373c5.521 0.311 11.046-0.529 16.226-2.466 5.175-1.937 9.899-4.932 13.858-8.789 3.964-3.857 7.078-8.495 9.156-13.619 2.074-5.129 3.059-10.628 2.897-16.154l2.773-232.883c-0.098-11.17-4.463-21.879-12.198-29.939-4.023-4.553-8.977-8.196-14.524-10.684-5.542-2.483-11.558-3.759-17.634-3.733z" />
<glyph unicode="&#xe992;" d="M81.022 593.029c-14.163 14.163-14.163 37.126 0 51.289l192 192c14.163 14.163 37.126 14.163 51.289 0l191.999-192c14.165-14.163 14.165-37.126 0-51.289-14.161-14.163-37.124-14.163-51.285 0l-130.091 130.089v-680.447c0-20.028-16.237-36.267-36.267-36.267s-36.267 16.239-36.267 36.267v680.447l-130.089-130.089c-14.163-14.163-37.126-14.163-51.289 0z" />
<glyph unicode="&#xe993;" d="M507.691 260.318c-14.165-14.165-14.165-37.124 0-51.29l192-192c14.161-14.161 37.124-14.161 51.285 0l192 192c14.165 14.165 14.165 37.124 0 51.29-14.161 14.161-37.124 14.161-51.285 0l-130.091-130.091v680.446c0 20.029-16.239 36.267-36.267 36.267s-36.267-16.237-36.267-36.267v-680.446l-130.091 130.091c-14.161 14.161-37.124 14.161-51.285 0z" />
<glyph unicode="&#xe994;" d="M835.58 103.092c-17.988-17.988-47.151-17.988-65.139 0l-565.271 565.271c-17.987 17.987-17.987 47.15 0 65.137s47.151 17.987 65.137 0l565.272-565.269c17.984-17.988 17.984-47.151 0-65.139z" />
<glyph unicode="&#xe995;" d="M769.515 717.67c0-25.437-20.621-46.059-46.059-46.059h-456.402v-456.404c0-25.438-20.621-46.059-46.059-46.059s-46.059 20.621-46.059 46.059v502.464c0 25.438 20.621 46.059 46.059 46.059h502.461c25.438 0 46.059-20.621 46.059-46.059z" />
<glyph unicode="&#xe996;" d="M936.047 430.912c25.011 0 45.286 21.013 45.286 46.933v238.95c0 25.921-20.275 46.933-45.286 46.933h-246.703c-25.011 0-45.286-21.012-45.286-46.933s20.275-46.933 45.286-46.933h201.417v-192.017c0-25.92 20.275-46.933 45.286-46.933z" />
<glyph unicode="&#xe997;" d="M68.424 94.191c22.563-11.183 49.602-1.293 60.393 22.093l199.799 432.958 263.648-255.021c9.459-9.152 22.242-13.67 35.127-12.416s24.636 8.158 32.29 18.974l226.428 319.999c14.793 20.903 10.432 50.274-9.737 65.602s-48.508 10.81-63.3-10.092l-196.279-277.392-271.501 262.615c-10.543 10.198-25.143 14.582-39.313 11.805s-26.218-12.383-32.44-25.866l-226.43-490.666c-10.791-23.386-1.248-51.409 21.315-62.592z" />
<glyph unicode="&#xe998;" d="M188.426 103.092c17.987-17.988 47.151-17.988 65.137 0l565.27 565.271c17.988 17.987 17.988 47.15 0 65.137s-47.151 17.987-65.135 0l-565.272-565.269c-17.987-17.988-17.987-47.151 0-65.139z" />
<glyph unicode="&#xe999;" d="M254.487 717.67c0-25.437 20.622-46.059 46.059-46.059h456.403v-456.404c0-25.438 20.621-46.059 46.059-46.059s46.059 20.621 46.059 46.059v502.464c0 25.438-20.621 46.059-46.059 46.059h-502.461c-25.437 0-46.059-20.621-46.059-46.059z" />
<glyph unicode="&#xe99a;" d="M512.226-31.227c-25.438 0-46.059 20.621-46.059 46.059v799.412c0 25.438 20.621 46.059 46.059 46.059s46.059-20.621 46.059-46.059v-799.412c0-25.438-20.621-46.059-46.059-46.059z" />
<glyph unicode="&#xe99b;" d="M900.087 450.057c-17.988-17.988-47.151-17.988-65.139 0l-322.726 322.726-322.726-322.726c-17.987-17.988-47.15-17.988-65.137 0s-17.987 47.151 0 65.137l355.296 355.295c17.988 17.987 47.151 17.987 65.135 0l355.298-355.295c17.984-17.987 17.984-47.149 0-65.137z" />
</font>
</defs>
</svg>
